<?xml version="1.0" standalone="no"?>
<!DOCTYPE svg PUBLIC "-//W3C//DTD SVG 1.1//EN" "http://www.w3.org/Graphics/SVG/1.1/DTD/svg11.dtd" >
<svg xmlns="http://www.w3.org/2000/svg" xmlns:xlink="http://www.w3.org/1999/xlink" version="1.1">
<metadata>
Created by FontForge 20200511 at Sun Jan 11 06:15:07 2004
 By convertio
\2512001 Active Images/Comicraft, all rights reserved. www.comicbookfonts.com Unauthorized duplication and/or use is a violation of applicable laws. Created by JG
</metadata>
<defs>
<font id="CCDaveGibbons-Regular" horiz-adv-x="380" >
  <font-face 
    font-family="CCDaveGibbons"
    font-weight="400"
    font-stretch="normal"
    units-per-em="1000"
    panose-1="2 0 5 3 2 0 0 2 0 4"
    ascent="800"
    descent="-200"
    x-height="784"
    cap-height="801.5"
    bbox="-28.9231 -140.25 3600 918"
    underline-thickness="20"
    underline-position="-143"
    unicode-range="U+0020-F8FF"
  />
<missing-glyph horiz-adv-x="1000" 
 />
    <glyph glyph-name=".notdef" horiz-adv-x="1000" 
 />
    <glyph glyph-name=".null" horiz-adv-x="0" 
 />
    <glyph glyph-name="nonmarkingreturn" horiz-adv-x="476" 
 />
    <glyph glyph-name="space" unicode=" " horiz-adv-x="476" 
 />
    <glyph glyph-name="dollar" unicode="$" horiz-adv-x="625" 
d="M597 389q0 16 -9.5 26t-24.5 16t-32.5 8t-33.5 3q-41 2 -89 -4.5t-96.5 -11t-94 -0.5t-81.5 28q-9 6 -5.5 12t13 11.5t22 11t21.5 9.5q26 12 63 19t75.5 12t75 9.5t63 10.5t38.5 15t1 23q-17 22 -32.5 31.5t-32.5 13t-36 3.5q-18 0 -39 2q-8 15 -11 39t-4 50t-2 50
t-5.5 39.5t-15 19t-29.5 -11.5q-25 -19 -31.5 -42.5t-6 -49.5t3 -52.5t-4.5 -50.5q-24 -12 -51.5 -23.5t-54.5 -24.5t-52.5 -28.5t-45.5 -35.5q-14 -14 -25.5 -33t-15.5 -38.5t2.5 -37.5t29.5 -30q54 -29 112.5 -38.5t114 -10t106 3.5t89.5 3q-54 -44 -114 -69.5t-122 -31.5
q-22 -3 -41.5 2.5t-38 12.5t-38 12.5t-41.5 2.5q-13 -2 -14.5 -13t4 -25t15 -27t18.5 -18q22 -12 41.5 -19.5t38.5 -10.5t39.5 -2.5t46.5 3.5q11 -9 18 -26t11.5 -36t9 -37t10 -30.5t14.5 -16.5t23 7q24 17 29.5 39.5t5.5 44.5q0 23 -0.5 43.5t11.5 34.5q31 20 67.5 40
t67 44.5t50.5 55.5t20 74z" />
    <glyph glyph-name="percent" unicode="%" horiz-adv-x="888" 
d="M801 801q-11 12 -27 15.5t-32.5 0.5t-32 -9.5t-26.5 -13.5q-38 -25 -71 -64t-64.5 -84t-62 -91.5t-63.5 -86.5q-17 -20 -40 -50.5t-48.5 -65.5t-52.5 -73t-51.5 -74t-44 -67.5t-31.5 -53.5q-7 -12 -15 -26t-12.5 -28.5t-4 -27.5t11.5 -22q13 -12 28.5 -12.5t30 6t27 18.5
t20.5 25q42 69 89.5 136.5t92.5 130.5q51 72 102 139.5t96.5 123t82.5 96.5t59 59q11 9 22 22t18 26.5t7.5 27t-8.5 23.5zM404 696q13 -33 14.5 -67t-7 -65t-26 -57t-42.5 -42q-29 -18 -60 -37t-64.5 -29.5t-69.5 -9t-75 24.5q-34 20 -46.5 50.5t-12 65t11.5 69t25 62.5
q22 43 53 76.5t83 43.5q31 6 64 5.5t62.5 -10t53 -29.5t36.5 -51zM308 626q-5 22 -20 35t-34.5 17t-42 -1t-41.5 -18q-13 -9 -24.5 -22.5t-19 -30.5t-9.5 -37t6 -41q6 -17 18.5 -23.5t27 -7t30 3.5t28.5 9q18 6 34.5 17.5t28.5 26.5t17.5 33.5t0.5 38.5zM848 288
q13 -33 15 -67t-6.5 -65t-26 -56.5t-42.5 -41.5q-29 -19 -60 -38t-64.5 -29.5t-69.5 -9t-75 24.5q-34 20 -46.5 50.5t-12 65t11.5 69t25 62.5q22 44 53 77t83 43q31 6 64 5.5t62 -10t52.5 -29.5t36.5 -51zM753 218q-5 22 -20 35t-35 17t-42 -1t-41 -18q-13 -9 -25 -22.5
t-19.5 -30.5t-9 -37t6.5 -41q6 -17 18 -23.5t27 -7t30.5 3.5t27.5 9q18 6 35 17.5t29 26.5t17 33.5t1 38.5z" />
    <glyph glyph-name="ampersand" unicode="&#x26;" horiz-adv-x="809" 
d="M789 341q4 24 -1.5 42.5t-16 28.5t-22.5 9t-21 -14q-30 -48 -65.5 -82.5t-75.5 -65.5q-17 14 -35.5 32.5t-36 37.5t-32.5 37.5t-24 33.5q14 17 40 36t53.5 40.5t52.5 47.5t38 55.5t9.5 64.5t-33.5 76q-20 27 -44 43.5t-50 24.5t-53 8.5t-52 -3.5q-44 -8 -83.5 -35
t-65.5 -67t-34.5 -87.5t10.5 -95.5q6 -14 10 -23t8.5 -17t9.5 -17t13 -22q-27 -22 -66 -47t-75 -53.5t-61 -61t-24 -70.5q2 -71 20 -117.5t48 -74t68.5 -37.5t80.5 -7t86 15t84 29.5t74 38t58 39.5q18 -14 37 -26.5t39.5 -19.5t40.5 -7q21 0 41 9q15 7 19 18.5t-0.5 24.5
t-14 27t-20.5 27.5t-21 25t-15 18.5q13 22 29 41t31 38t26.5 38.5t15.5 43.5zM523 672q23 -21 13.5 -48.5t-35 -54t-58.5 -48t-58 -28.5q-9 9 -13 16.5t-6.5 15t-4.5 16.5t-6 20q-12 34 4.5 62.5t46 45.5t63 19.5t54.5 -16.5zM493 188q-23 -20 -51 -40.5t-59.5 -36.5
t-66 -24.5t-71.5 -3.5q-14 2 -31 10.5t-29.5 21t-17 29t6.5 34.5q15 26 37.5 50t48.5 42.5t53 31t51 15.5q12 -16 28.5 -34t34 -35.5t35 -33t31.5 -26.5z" />
    <glyph glyph-name="quotesingle" unicode="'" horiz-adv-x="263" 
d="M235 710q16 18 18 34.5t-4.5 28.5t-19.5 19t-27 7q-18 0 -38 -9t-31 -23q-11 -13 -20 -26t-17.5 -29.5t-16 -37t-16.5 -48.5q-6 -22 -13 -41.5t-12 -38t-7 -38t1 -40.5q2 -12 11.5 -16t20 -2t19.5 7.5t12 12.5q7 19 13 37t12.5 35t15 35t20.5 38q10 17 20 29.5t20 23
t19.5 20.5t19.5 22z" />
    <glyph glyph-name="parenleft" unicode="(" 
d="M386 815q-30 5 -52.5 -3t-55.5 -31q-69 -47 -122.5 -107.5t-87 -129.5t-45 -145t4.5 -154q7 -33 19.5 -70t31 -71t42.5 -62.5t54 -46.5q10 -6 21.5 -12.5t23 -9.5t23 -2t22.5 10q10 9 9.5 20.5t-8 24t-19 24.5t-21.5 22q-21 20 -40 47.5t-33.5 60.5t-23.5 70t-10 77
q-2 76 16.5 131.5t49.5 101.5t69.5 87t77.5 88q12 15 28.5 28t27.5 24t13 18t-15 10z" />
    <glyph glyph-name="parenright" unicode=")" horiz-adv-x="372" 
d="M336 316q5 69 -7.5 132t-38 120.5t-61 108.5t-77.5 96q-31 36 -70 19q-18 -7 -26.5 -19t-9.5 -25.5t4 -27.5t16 -24q24 -24 50 -50.5t49.5 -56t43 -61t30.5 -65.5q22 -72 17.5 -132.5t-24 -114t-48 -102t-52.5 -96.5q-11 -21 -16 -34t-5 -34q0 -5 6.5 -9.5t16 -6
t21.5 2.5t23 17q66 77 108 168t50 194z" />
    <glyph glyph-name="asterisk" unicode="*" horiz-adv-x="484" 
d="M516 726q-8 8 -20 11.5t-25.5 4t-26 -2t-21.5 -6.5q-29 -14 -50 -31t-41 -37q0 10 0.5 20.5t0.5 21.5q0 7 -3.5 18.5t-9 22.5t-12 20t-11.5 11q-25 11 -40 9.5t-22.5 -9.5t-10 -19t-3.5 -18q-2 -23 -3.5 -43t-3.5 -39l-81 49q-22 8 -40.5 6t-29 -12t-11 -25.5t13.5 -34.5
q9 -12 19.5 -21t20.5 -16q12 -9 23.5 -14.5t22 -10.5t21 -11.5t20.5 -17.5q-13 -15 -28 -27.5t-30 -24.5t-30 -24.5t-27 -28.5q-21 -27 -16.5 -46.5t22 -28.5t42 -5t44.5 26q11 12 23 24.5t25 24.5q3 -17 5.5 -29t4.5 -22q8 -34 30 -48.5t55 -18.5q16 -2 21 15t5 39t-3 43
t-4 29q23 -15 45.5 -32t45.5 -32q15 -10 33.5 -4.5t29 21t7 39.5t-31.5 52q-21 20 -46 35.5t-48 33.5q22 21 39.5 34.5t31 21.5t24.5 13.5t22 11.5t20.5 16.5t15 22t5 23t-8.5 20.5z" />
    <glyph glyph-name="plus" unicode="+" horiz-adv-x="484" 
d="M418 364q14 2 24 11.5t11.5 20.5t-7.5 21.5t-34 15.5q-22 5 -51.5 7.5t-62.5 4.5q1 17 2 38.5t2 50.5q0 7 -3.5 18.5t-9 22.5t-12 20t-11.5 11q-25 11 -40 9.5t-22.5 -9.5t-10 -19t-3.5 -18q-8 -72 -9 -125q-29 -2 -55.5 -6t-49.5 -11q-12 -3 -22 -12t-16 -20.5
t-7.5 -24.5t3.5 -25q8 -16 27.5 -23.5t39.5 -0.5q18 6 38 11t42 9q2 -48 7 -76.5t10 -46.5q8 -34 29.5 -48.5t54.5 -18.5q14 -1 19.5 11t6 30t-2 38.5t-3.5 35.5q-3 29 -4 50.5t-2 38.5q42 4 74.5 5.5t47.5 3.5z" />
    <glyph glyph-name="comma" unicode="," horiz-adv-x="287" 
d="M231 121q7 9 12.5 23t5.5 29t-7 28.5t-23 22.5q-20 11 -41.5 5t-38.5 -25q-49 -51 -71.5 -109.5t-35.5 -124.5q-5 -26 -7.5 -50t11.5 -48q4 -7 14 -10.5t21.5 0t22 14.5t15.5 34q9 46 22 75.5t28.5 51t33.5 40.5t38 44z" />
    <glyph glyph-name="hyphen" unicode="-" 
d="M316 364q14 2 24 11.5t11.5 20.5t-7.5 21.5t-34 15.5q-30 6 -56 9.5t-53 3.5t-57.5 -4.5t-67.5 -14.5q-12 -3 -22 -12t-16 -20.5t-7.5 -24.5t3.5 -25q8 -16 27.5 -23.5t39.5 -0.5q39 13 71 21t59 12t48 6t37 4z" />
    <glyph glyph-name="period" unicode="." horiz-adv-x="244" 
d="M204 118q-14 34 -43 43.5t-58 0t-50 -34.5t-19 -59q2 -31 24 -46t53 -7q16 4 37.5 8.5t38 14.5t23.5 28.5t-6 51.5z" />
    <glyph glyph-name="slash" unicode="/" horiz-adv-x="756" 
d="M746 807q-11 12 -27 15.5t-32.5 0.5t-32 -9.5t-26.5 -13.5q-38 -25 -71 -63.5t-64.5 -83.5t-62.5 -92t-63 -87q-17 -20 -40 -50.5t-49 -65.5t-53 -73t-51 -74t-44 -67.5t-32 -53.5q-6 -12 -14 -26t-12.5 -28.5t-4 -27.5t11.5 -22q13 -12 28.5 -12.5t30 6t27 18.5t20.5 25
q42 69 89.5 136.5t92.5 130.5q51 72 102 139.5t96.5 123t82 96.5t59.5 59q11 9 22 22t18 27t7.5 27t-8.5 23z" />
    <glyph glyph-name="zero" unicode="0" horiz-adv-x="845" 
d="M791 612q-26 63 -73 102t-105.5 58.5t-124 21t-128.5 -11.5q-51 -10 -92 -33t-73.5 -54.5t-58.5 -71t-47 -82.5q-19 -38 -35.5 -81.5t-26.5 -89.5t-12 -92.5t9 -88.5t37 -78.5t71 -62.5q79 -46 151 -49.5t138.5 18t128 59t120.5 74.5q51 32 86 83.5t51.5 113.5
t13.5 130.5t-30 134.5zM690 511q15 -59 -1 -113.5t-51.5 -100t-85.5 -80t-104 -52.5q-37 -13 -83 -24.5t-90 -11t-81 20.5t-55 70q-23 63 -18 122t27.5 110.5t57.5 92.5t73 67q58 40 123.5 53.5t124.5 0.5t103.5 -51.5t59.5 -103.5z" />
    <glyph glyph-name="one" unicode="1" horiz-adv-x="237" 
d="M191 688q3 13 5.5 30t0.5 32.5t-8.5 26.5t-21.5 14q-10 2 -20.5 -4t-19.5 -16.5t-16 -23t-9 -22.5q-17 -72 -27 -152t-14.5 -160.5t-4.5 -159.5t4 -149q1 -15 0.5 -33.5t1.5 -35.5t8.5 -29t20.5 -13q17 -1 31 8.5t24 24.5t14 32t2 32q-5 33 -8.5 73.5t-5 86t-0.5 94
t5 96.5q3 45 7 79.5t9 62.5t10.5 53.5t11.5 52.5z" />
    <glyph glyph-name="two" unicode="2" horiz-adv-x="742" 
d="M710 149q-9 13 -21.5 21t-27 12.5t-30 6t-30.5 2.5q-47 3 -93.5 -1t-92.5 -10t-90 -11.5t-85 -5.5q41 45 88.5 96t95.5 103.5t92.5 104.5t79.5 100q16 23 36.5 47t36 48.5t23.5 50.5t0 53q-9 28 -31.5 43t-52 20.5t-62.5 4t-63 -4.5q-51 -5 -104 -22.5t-103.5 -41.5
t-97 -51.5t-85.5 -54.5q-16 -11 -22.5 -33.5t-4 -45t12 -40t26.5 -20.5q11 -2 20 4t17.5 15t17 19t17.5 17q48 35 99.5 64.5t108.5 42.5q20 4 48.5 12t54 11t41.5 -3t12 -28q-6 -26 -21.5 -51t-37 -50.5t-46.5 -52t-49 -54.5q-66 -80 -139 -157t-150 -155q-20 -20 -43 -35.5
t-34 -41.5q-5 -12 -4.5 -30t6 -34.5t16 -28.5t27.5 -14q13 -2 24.5 3.5t23 13t23 15.5t23.5 13q57 19 117 29t122 15t124.5 8t123.5 10q16 2 32 6.5t27 12.5t13.5 21t-9.5 32z" />
    <glyph glyph-name="three" unicode="3" horiz-adv-x="708" 
d="M690 687q-3 45 -32 74t-72 45t-94.5 20.5t-98.5 1.5q-48 -3 -96.5 -13t-92 -26t-81 -38.5t-62.5 -50.5q-12 -13 -23.5 -29t-15.5 -33t2.5 -32.5t30.5 -27.5q19 -9 33 -6.5t26 10.5t22.5 19.5t22.5 20.5q46 35 98 56.5t116 32.5q21 4 47 4q27 0 53 -4.5t50 -14t40 -25.5
q20 -20 20.5 -37.5t-11.5 -33t-34.5 -29t-48.5 -25.5t-53 -23t-49 -20q-33 -14 -68.5 -24t-65.5 -20t-49 -23.5t-19 -34.5q0 -15 6.5 -26.5t17 -20t24 -12.5t27.5 -2q25 3 51.5 9.5t53 12t54 6.5t54.5 -8q14 -5 33.5 -15.5t35.5 -25t23 -32t-3 -35.5q-30 -52 -77.5 -87
t-100.5 -50t-106 -9.5t-93 33.5q-26 19 -60.5 20t-60.5 -27q-5 -6 -5.5 -13t2 -15.5t7.5 -17t10 -16.5q13 -20 45 -41t72.5 -34t86 -14t86.5 17q33 15 72.5 33.5t79 41t74.5 50t59.5 59.5t34.5 69.5t-1 81.5q-7 28 -24 44.5t-39 30t-45.5 26.5t-43.5 33q33 24 62 42.5
t51 41.5t33.5 54.5t8.5 81.5z" />
    <glyph glyph-name="four" unicode="4" horiz-adv-x="774" 
d="M754 335q-2 8 -20.5 12.5t-49.5 6.5q-29 2 -66.5 1.5t-78.5 -2.5q-3 48 1.5 95t10 94t10 93t2.5 91q-1 15 -0.5 34t-2 36.5t-10 31t-24.5 17.5q-14 3 -25.5 -6.5t-22 -25.5t-22 -34.5t-24.5 -32.5q-42 -46 -79.5 -91t-74.5 -91.5t-75.5 -95.5t-83.5 -103
q-15 -18 -33.5 -35.5t-34.5 -35t-26 -35.5t-8 -36q5 -32 32 -41.5t64 -7.5q34 3 74.5 10t82.5 14.5t82 13t73 5.5q6 -25 6.5 -48t-1 -45.5t-2.5 -45.5t4 -47q2 -13 9.5 -29.5t18 -28t24 -14.5t28.5 10q10 9 10 31q0 23 3 47q2 22 4.5 47l5 50t4 47t1.5 38q32 0 60 -1t67 -2
q18 0 35.5 7t30.5 20.5t19.5 34t1.5 47.5zM433 584q-3 -26 -3 -56v-60q0 -30 -0.5 -61t-4.5 -60q-22 3 -49.5 0.5t-55.5 -7.5t-55 -10t-48 -6q26 34 58 74t62.5 77t56.5 66.5t39 42.5z" />
    <glyph glyph-name="five" unicode="5" horiz-adv-x="702" 
d="M674 721q-11 26 -33.5 41t-47.5 25q-47 19 -104 21.5t-116 -1t-115.5 -7.5t-101.5 2q-32 4 -53 -17.5t-28 -63.5q-5 -32 -16.5 -68t-22.5 -73.5t-19 -75.5t-7 -73q1 -18 3.5 -35t8.5 -32t17.5 -27t30.5 -21q11 -5 26 9t24 34q29 16 67 27t79.5 16t84 3t81.5 -12.5t71 -30
t53 -49.5q15 -23 12 -41t-16.5 -33t-34 -28.5t-39.5 -25.5q-40 -25 -82.5 -44.5t-86 -29.5t-88 -9t-87.5 17q-16 6 -32 6.5t-29 -5t-20.5 -17t-5.5 -27.5q3 -36 18.5 -54.5t37 -27.5t48 -12t52.5 -7q35 -6 72 2t74.5 23.5t74 35t71.5 37.5q34 18 68.5 42t61 55t41 69t8.5 83
q-6 47 -28 80.5t-55 56t-73.5 36t-83.5 20.5q-37 6 -78 6t-81.5 -3t-78.5 -6t-71 -3q0 27 2.5 47.5t9.5 38.5t18 35.5t28 37.5q44 9 104.5 13t122.5 4q63 0 121.5 -3t98.5 -6q12 -1 21.5 3.5t15.5 11.5t8 15.5t-1 14.5z" />
    <glyph glyph-name="six" unicode="6" horiz-adv-x="823" 
d="M795 393q-18 40 -54.5 57t-81.5 19t-92.5 -7.5t-87.5 -21.5q-49 -16 -94 -37.5t-86.5 -45.5t-80.5 -49.5t-76 -49.5q11 42 21 73.5t21.5 56.5t27.5 46.5t38.5 44t54.5 49.5t76 62q15 12 46.5 27t66.5 30t68 27.5t53 19.5q19 6 33.5 13.5t24 18.5t13.5 27.5t2 42.5
q-1 9 -2.5 17.5t-7.5 14.5t-16.5 8t-29.5 -1q-87 -14 -170.5 -54.5t-155.5 -100t-128 -133t-89 -154.5q-12 -30 -24.5 -66t-20.5 -75t-9 -78t9.5 -74.5t35 -65.5t67.5 -50q45 -21 86 -25t80.5 4.5t78.5 25.5t81 37q32 16 74 38t84 49t79.5 59t62.5 67.5t32.5 74t-10.5 79.5z
M661 343q23 -8 20 -26t-21 -40t-45.5 -44t-54.5 -36q-32 -17 -76.5 -33t-92 -29.5t-94.5 -22t-83 -10.5q35 72 94.5 123.5t133.5 81.5q25 10 52 20.5t55 17t56.5 7t55.5 -8.5z" />
    <glyph glyph-name="seven" unicode="7" horiz-adv-x="760" 
d="M753 796q-5 11 -16 12t-25 -2t-28.5 -7t-26.5 -4q-65 3 -129 7t-127.5 6t-127.5 1t-130 -9q-11 -2 -25 -5t-28.5 -7.5t-27 -11.5t-19.5 -16q-16 -20 -13.5 -42t14 -40t27.5 -29.5t28 -11.5q59 3 118.5 13.5t119.5 18t119.5 6.5t118.5 -21q-34 -68 -71.5 -137.5
t-73.5 -140.5t-68.5 -144t-56.5 -148q-11 -35 -2.5 -60.5t24.5 -41.5t33.5 -20.5t25.5 3.5q9 9 13 25t6.5 34t4 36t5.5 30q25 77 60.5 148.5t75 142t79 140.5t72.5 144q7 16 18.5 32.5t21 33t14 33t-2.5 32.5z" />
    <glyph glyph-name="eight" unicode="8" horiz-adv-x="852" 
d="M826 340q-8 30 -26.5 48.5t-42.5 32t-50.5 25t-50.5 28.5q32 14 56 35.5t38 47t18 53t-4 52.5q-18 55 -61 90.5t-98 54.5t-115 23t-112 -3q-38 -6 -79 -17.5t-80.5 -29.5t-73.5 -41.5t-57 -54t-32.5 -67.5t1.5 -81q8 -32 16 -51t19.5 -31.5t27 -20t37.5 -16.5
q-23 -21 -52.5 -52t-52.5 -70t-35 -84t0 -92q15 -58 50 -91t82.5 -47t103.5 -13t113.5 10t112.5 23t101 26q56 14 108.5 38t89.5 61t52 89.5t-4 124.5zM618 650q22 -22 20.5 -41t-19 -36t-47 -31.5t-61.5 -26.5t-62.5 -22t-51.5 -19q-28 -12 -61.5 -14.5t-66 4t-61 22
t-46.5 40.5q-17 24 -9.5 44t27.5 36.5t46.5 30.5t47.5 25q33 18 83 26t101 6.5t95 -12.5t65 -32zM701 322q28 -13 30.5 -30t-12 -36t-42 -37.5t-59 -35t-64 -28t-57.5 -16.5q-70 -14 -146 -20.5t-142 -11.5q-11 -1 -27.5 2t-32 10t-26 18t-7.5 26q8 47 35 76t66 46.5
t85.5 27.5t93.5 19q37 7 79 11.5t83 4t78 -6.5t65 -19z" />
    <glyph glyph-name="nine" unicode="9" horiz-adv-x="864" 
d="M843 637q-15 62 -51 102t-84 61.5t-104.5 26.5t-113 -0.5t-109 -21t-92.5 -34.5q-30 -15 -65 -38t-68 -52.5t-61 -64.5t-44.5 -73t-19 -78t15.5 -79q27 -58 72.5 -84.5t100.5 -31.5t117 5.5t122.5 27t115.5 33.5t98 24q0 -14 -6.5 -30t-20.5 -33q-30 -35 -63.5 -68
t-80.5 -61.5t-111.5 -52t-155.5 -39.5q-14 -2 -29 -1t-29 -0.5t-25 -7.5t-17 -22q-2 -6 -2.5 -20.5t5 -29.5t19.5 -26.5t41 -11.5q64 -1 123 12t113 37t103 57.5t93 75.5q52 50 98.5 105.5t78 118t43 131t-6.5 143.5zM691 637q23 -37 20 -67.5t-24.5 -55t-56 -43t-73 -32
t-76.5 -22.5t-67 -13q-31 -4 -62.5 -8t-61.5 0t-58 20t-51 51q-22 33 -17.5 63.5t27 56t58 47t76 37t80.5 25t71 12.5q29 3 60 2t60 -9t53.5 -23.5t41.5 -40.5z" />
    <glyph glyph-name="colon" unicode=":" horiz-adv-x="244" 
d="M198 474q-5 11 -15 19t-23.5 11.5t-28.5 2t-29 -7.5q-30 -14 -44.5 -41t-15 -54.5t13.5 -48t41 -20.5q21 0 42 14.5t36.5 36t22.5 45.5t0 43zM204 118q-1 25 -14 37t-32.5 14t-42 -5t-41 -21t-30.5 -33.5t-10 -41.5q2 -31 24 -46t53 -7q16 4 33 9.5t30.5 16.5t22 29
t7.5 48z" />
    <glyph glyph-name="semicolon" unicode=";" horiz-adv-x="287" 
d="M252 474q-4 11 -14.5 19t-24 11.5t-28.5 2t-28 -7.5q-30 -14 -45 -41t-15 -55q0 -27 13.5 -47.5t40.5 -20.5q22 0 43 14.5t36.5 36t22 45.5t-0.5 43zM231 121q7 9 12.5 23t5.5 29t-7 28.5t-23 22.5q-20 11 -41.5 5t-38.5 -25q-49 -51 -71.5 -109.5t-35.5 -124.5
q-5 -26 -7.5 -50t11.5 -48q4 -7 14 -10.5t21.5 0t22 14.5t15.5 34q9 46 22 75.5t28.5 51t33.5 40.5t38 44z" />
    <glyph glyph-name="less" unicode="&#x3c;" horiz-adv-x="512" 
d="M488 38q-1 12 -9 22.5t-18 19.5t-21 16.5t-18 13.5q-52 45 -88.5 82.5t-63.5 69.5t-47.5 59.5t-41.5 52.5q39 37 75.5 80t70 88.5t64 91.5t56.5 88q7 12 14.5 24.5t12 25t4.5 24.5t-7 23q-7 10 -15 8.5t-17 -9t-18 -18.5t-18 -21q-36 -40 -70 -85t-70 -89t-75.5 -83.5
t-86.5 -69.5q-13 -8 -27.5 -15.5t-26.5 -16.5t-20.5 -21t-9.5 -29q-2 -19 7 -29.5t22.5 -19.5t29.5 -19t30 -28q25 -31 55 -66t63 -67t68.5 -58.5t71.5 -41.5q16 -6 38 -14t41.5 -11.5t32.5 0.5t12 22z" />
    <glyph glyph-name="equal" unicode="=" 
d="M307 448q-16 -2 -37 -4t-47.5 -6t-59 -12t-71.5 -21q-19 -7 -39 0.5t-27 23.5q-5 12 -4 25t7 24.5t16 20.5t23 12q37 10 67.5 14t57.5 4t53 -3.5t55 -8.5q25 -5 34.5 -15.5t8 -21.5t-12 -20.5t-24.5 -11.5zM327 266q-16 -2 -37 -4t-47.5 -6t-59 -12t-70.5 -21
q-20 -7 -40 0.5t-27 23.5q-5 12 -4 25t7 24.5t16.5 20.5t22.5 12q37 10 67.5 14.5t57.5 4.5t53 -3.5t55 -9.5q25 -5 34.5 -15.5t8 -21.5t-12 -20.5t-24.5 -11.5z" />
    <glyph glyph-name="greater" unicode="&#x3e;" horiz-adv-x="463" 
d="M446 369q2 17 -1.5 29.5t-11.5 24t-20 23t-25 25.5q-31 32 -59.5 61t-56 60t-54.5 66t-55 80q-6 10 -18 18t-26 11t-28 -1t-24 -16q-14 -16 -9 -37.5t15 -40.5q18 -38 46.5 -77t61 -77t64.5 -73t58 -64q-12 -20 -32.5 -48t-44.5 -61t-47 -68.5t-39 -70.5q-5 -11 -14 -23
t-16 -24t-9.5 -23t3.5 -21q10 -15 23 -18.5t26 -0.5t25 10.5t21 14.5q22 18 42 53t42.5 72.5t48.5 70.5t60 49q27 13 39 31t15 45z" />
    <glyph glyph-name="question" unicode="?" horiz-adv-x="599" 
d="M595 741q1 12 -3 19.5t-10 13.5t-14 10.5t-15 9.5q-69 13 -144.5 12t-148 -18t-138.5 -52t-115 -89q-11 -12 -10.5 -33t9.5 -38t24.5 -24t35.5 10q113 95 214 121t189 -9q-17 -26 -49 -64t-71.5 -81.5t-83.5 -89t-86 -85.5q-14 -22 -11.5 -42t12.5 -34.5t23 -22t22 -5.5
q29 7 58.5 8t55.5 5t47.5 16t35.5 42q-2 26 -21.5 38.5t-61.5 23.5q40 51 84.5 90.5t81.5 79t62 84t28 104.5zM346 69q3 16 -7 32t-26.5 27t-36 16t-35.5 0q-19 -6 -30.5 -25.5t-14.5 -43t3 -45.5t23 -31q20 -11 41 -7t38.5 16t30 29t14.5 32z" />
    <glyph glyph-name="at" unicode="@" horiz-adv-x="899" 
d="M864 625q-12 41 -30.5 65.5t-43 39.5t-56 23.5t-68.5 17.5q-60 14 -112.5 13t-106.5 -10q-49 -8 -97.5 -26t-93.5 -46.5t-85 -67.5t-70 -88q-36 -58 -55 -125.5t-22.5 -133.5t9 -125t40.5 -100q24 -36 66 -53t98 -17.5t123.5 13.5t142.5 41q14 5 28.5 18t26 29.5t18.5 33
t6.5 28t-9.5 15.5t-29 -5q-54 -23 -102.5 -34t-91.5 -14t-80 0.5t-69 10.5q-39 8 -60.5 35.5t-28.5 65.5t-0.5 83.5t23 89.5t41.5 82t55 61q50 39 111.5 73t129 47.5t138 -1.5t138.5 -74q15 -14 14 -38t-14.5 -52t-39 -57t-59.5 -52q-12 39 -16.5 72t-13.5 74q-7 30 -20 48
t-30.5 25t-39 4.5t-44.5 -11.5q-64 -25 -122 -69t-98 -100q-19 -27 -29 -66t-7.5 -78t18.5 -71.5t49 -46.5q29 -13 72 -8.5t87.5 19t84.5 34.5t63 38q8 -17 12 -30t8 -24t9 -23t14 -28q3 -6 14 -3.5t22.5 9.5t20.5 17t9 18q0 23 -2 37t-5 23.5t-7.5 18.5t-10.5 22
q44 32 83 67.5t65.5 76.5t35.5 87.5t-7 101.5zM576 348q-24 -17 -53 -31t-57 -23.5t-52.5 -13.5t-39.5 -1q-32 6 -44 20t-13 30t5.5 30.5t11.5 20.5q35 46 83.5 75t113.5 25z" />
    <glyph glyph-name="A" unicode="A" horiz-adv-x="739" 
d="M736 135q-45 165 -101 320t-130 301q7 25 4 46t-12 32.5t-21 12.5t-23 -14q-65 -89 -120 -162t-106 -149t-101.5 -164.5t-106.5 -206.5q-12 -26 -14.5 -50.5t1 -46t10 -39t12.5 -29.5q4 -7 13.5 -3.5t19 11.5t18 19.5t11.5 21.5q8 36 30 64q5 -8 29 -7.5t59 6.5
t76.5 15.5t81.5 19.5q31 8 65.5 14t68.5 12t64 12t52 15q7 -12 9.5 -20t4.5 -17t4.5 -22t9.5 -34q9 -26 18.5 -54.5t20 -43t23 -7t27.5 52.5q7 20 7.5 47t-4.5 47zM568 293l-364 -43q10 33 34 78t54 93t62 95.5t58 84.5q18 -20 40 -60.5t43 -87t40 -90.5t33 -70z" />
    <glyph glyph-name="B" unicode="B" horiz-adv-x="651" 
d="M588 116q35 31 42.5 64t-4.5 65t-38.5 62t-60.5 54t-70 41.5t-66 25.5q79 49 121.5 84.5t61 65.5t18 58.5t-7.5 62.5q-7 31 -37 52.5t-72.5 34t-91.5 16t-94 0.5q-49 -3 -83 -9t-60 -15t-49 -22t-49 -31q-20 -14 -23 -25.5t2.5 -21t15.5 -15.5t17 -9q-12 -81 -18 -165.5
t-7 -161.5t3.5 -143t13.5 -111q7 -32 40.5 -50t75.5 -18q85 -2 152 7t118 24.5t88 36t62 43.5zM461 664q15 -10 7 -27.5t-31 -39t-57.5 -44.5t-72.5 -42.5t-75 -34t-65 -18.5q11 61 12 111.5t-4 91.5q27 15 64 24.5t76 11.5t77 -6t69 -27zM445 285q31 -20 41 -38t5 -34
t-22 -30t-40 -24.5t-48.5 -18.5t-48.5 -12q-20 -3 -47 -4.5t-54.5 -1t-51.5 3t-36 5.5q1 19 3.5 44t4.5 52.5t4.5 57t3.5 56.5l20 9q1 0 0 -1.5t6 -1t40 11.5q60 -13 120.5 -31.5t99.5 -42.5z" />
    <glyph glyph-name="C" unicode="C" horiz-adv-x="763" 
d="M702 290q-20 1 -37.5 -3t-36.5 -12t-40 -21t-47 -31q-25 -17 -61 -34.5t-76 -32t-81 -23t-76.5 -6.5t-63 17t-40.5 47q-20 49 -12 95.5t31.5 89t56 81t61.5 71.5q28 31 58 61.5t64.5 51t74 26t86.5 -13.5q11 -4 15 -14.5t5.5 -22t3 -19.5t7.5 -8q22 1 41 17.5t31.5 40.5
t17.5 50.5t-1 46.5q-13 38 -39.5 52.5t-59 15t-66.5 -8.5t-61 -17q-47 -15 -100.5 -50t-105.5 -84t-98.5 -108.5t-79 -122.5t-47.5 -127t-5 -122q9 -52 36.5 -87t66 -56.5t84.5 -30t92.5 -6.5t90.5 13.5t77 30.5q24 13 53.5 29t60 34t59.5 36.5t52 37.5q12 10 22.5 29
t14 38.5t-2 34t-25.5 15.5z" />
    <glyph glyph-name="D" unicode="D" horiz-adv-x="742" 
d="M719 507q-41 72 -99.5 122.5t-128 84.5t-147 54t-155.5 30q-43 3 -62 -8.5t-26 -30t-8.5 -40.5t-8.5 -40q-18 -45 -26 -104t-10 -122.5t1 -127.5t9 -119t13.5 -96.5t13.5 -60.5q27 -20 49.5 -33t45.5 -18t48 -2.5t58 13.5q91 31 170 71.5t137.5 99t92 138.5t33.5 189z
M603 465q1 -44 -12.5 -82t-40 -72t-64 -65t-83.5 -61q-26 -17 -58 -31.5t-64.5 -24t-61.5 -12t-50 5.5q-10 85 -12.5 158.5t2.5 139.5t17.5 124.5t33.5 113.5q58 0 117.5 -12.5t113 -37t96 -60.5t66.5 -84z" />
    <glyph glyph-name="E" unicode="E" horiz-adv-x="766" 
d="M755 706q-4 13 -15.5 22t-26.5 14.5t-31.5 8.5t-30.5 5q-136 20 -262.5 23.5t-262.5 -5.5q-29 -2 -39.5 -15.5t-11.5 -32t1.5 -39t-0.5 -36.5q-11 -54 -17 -119t-5.5 -137t7 -147.5t20.5 -150.5q-8 -31 -3 -50t19 -29.5t36 -13.5t49 -3q38 0 96 5.5t121 13.5t123 18
t102 19q18 4 41.5 16t40.5 25.5t21 25t-16 14.5q-23 3 -41.5 5t-37 2.5t-38.5 0.5t-44 -1q-49 -2 -100 -7.5t-101 -10.5t-97.5 -6.5t-89.5 4.5q-6 22 -7 48.5t0.5 54t5 53t8.5 44.5q67 7 127.5 11t120 7.5t121 7t131.5 10.5q17 2 35 6.5t29.5 12t13.5 17.5t-11 22
q-18 15 -30 22t-23 10t-21.5 3.5t-25.5 2.5q-61 8 -114.5 5t-107.5 -7.5t-112.5 -6t-129.5 9.5q2 36 4 63t5 48.5t8 40t13 38.5q40 8 95 12t114.5 4.5t119.5 -2t111 -5.5q18 -1 41 -2.5t41.5 2t28 14.5t2.5 35z" />
    <glyph glyph-name="F" unicode="F" horiz-adv-x="694" 
d="M692 670q6 22 -4.5 39.5t-26.5 30t-30.5 19.5t-15.5 8q-39 17 -86 16t-98 -6.5t-103 -8t-100 10.5q-23 6 -47.5 0t-47 -18.5t-40 -28.5t-25.5 -29q-13 -22 -17 -49t-4 -57v-61t-6 -62q-9 -47 -11 -101t2 -108.5t14 -106t27 -93.5q5 -13 13 -27t17.5 -24t20 -12.5
t20.5 7.5q10 11 12 24.5t-0.5 27.5t-7 27t-7.5 23q-10 42 -12 73t3 62q21 20 56 30.5t77 15.5t88 7.5t90 7t82.5 14t65.5 28.5q5 3 10.5 11t8 16.5t1 16.5t-10.5 11q-36 3 -94 6t-124 5t-133.5 3t-122.5 0q0 37 2.5 63.5t11.5 51t25.5 50.5t45.5 61q35 12 79.5 14t93 0
t98.5 -5.5t97 -3.5q15 0 33 -1t34.5 0t29 5.5t16.5 16.5z" />
    <glyph glyph-name="G" unicode="G" horiz-adv-x="863" 
d="M839 438q1 25 -7 39.5t-21.5 21t-30.5 7t-33 -2.5q-37 -8 -75 -13.5t-65 -12.5q-30 -8 -69 -15t-80.5 -16t-81.5 -22.5t-71 -33.5q-12 -8 -23.5 -17t-19 -20.5t-10 -24.5t3.5 -29q5 -12 15 -17.5t21.5 -6t24 2t23.5 6.5q51 17 99 34t94.5 29t92.5 15.5t94 -7.5
q-28 -53 -80.5 -99t-119 -80t-141 -52t-146.5 -14q-44 3 -72 22t-40 49t-9.5 67t19.5 75q38 87 94.5 149t127.5 105.5t154.5 70t176.5 42.5q25 4 30 26t-4 45.5t-29.5 40.5t-47.5 12q-125 -26 -228 -77.5t-182 -126.5q-44 -42 -83 -96t-67.5 -114t-44 -123.5t-11.5 -124.5
q3 -48 25 -80t57 -51.5t78 -27.5t88 -8t87.5 6.5t75.5 17.5q70 22 141.5 65t130 100t97 124.5t42.5 139.5z" />
    <glyph glyph-name="H" unicode="H" horiz-adv-x="750" 
d="M711 698q1 11 0 28t-4.5 33t-10.5 27t-17 10q-31 -4 -50.5 -21t-28.5 -40q-14 -34 -18.5 -72t-6.5 -81t-3.5 -89.5t-8.5 -96.5q-35 -5 -76 -11.5t-91 -12.5t-110.5 -9.5t-134.5 -2.5q0 49 1.5 81.5t4.5 54.5t8.5 38t13.5 34t19.5 41.5t26.5 60.5q5 11 2.5 28.5t-9.5 34
t-18 29.5t-23 16q-23 6 -39 -4t-26 -27.5t-16 -39.5t-10 -40q-14 -71 -24 -147.5t-13 -154t2 -154t22 -146.5q2 -9 6 -22.5t9.5 -27t12.5 -23.5t16 -13q18 -6 26.5 1t12.5 20t3.5 29.5t-0.5 29.5q-1 18 -5 36t-7 36.5t-3.5 37.5t7.5 39q54 -2 106.5 4.5t104.5 15.5t105 17
t109 8q4 -22 6 -39.5t4 -35.5t5 -39.5t8 -52.5q2 -10 6 -23.5t11.5 -28t18 -27t24.5 -21.5q6 -4 15 -5t16 5t10 20.5t-3 43.5q-18 97 -21.5 183.5t1.5 166t15 153t19 145.5z" />
    <glyph glyph-name="I" unicode="I" horiz-adv-x="659" 
d="M626 753q-51 18 -119 31t-141 17.5t-146 -1.5t-136 -25q-20 -7 -36 -23t-18 -35q-2 -20 2.5 -30.5t13 -15.5t19.5 -6.5t23 -2.5q26 -2 52.5 4t53.5 12.5t54.5 11t56.5 -1.5q-15 -32 -23.5 -76.5t-12 -95.5t-3 -105.5t3.5 -106.5t9 -99t13 -82q-21 -7 -41 -9.5t-41 -3.5
t-44 -1q-22 0 -47 -1q-12 -1 -26.5 -3t-27 -7.5t-21 -14.5t-9.5 -23q0 -11 13 -20t31.5 -15.5t37.5 -10t31 -3.5q48 0 93 -3.5t89 -5t87.5 2t87.5 16.5q7 2 18 5.5t22.5 7.5t20.5 9t12 11q7 18 2 30.5t-17 20.5t-26.5 12.5t-26.5 8.5q-14 4 -30.5 2t-33 -5t-32 -4t-26.5 7
q6 33 9 78.5t3.5 97t0 106t0 105t1.5 95t6 76.5q19 -4 47 -4q29 0 59 3.5t58 9.5t48 15q7 3 13 9t8 13t-1.5 13t-13.5 10z" />
    <glyph glyph-name="J" unicode="J" horiz-adv-x="784" 
d="M744 678q10 7 23 20.5t18 28t-2.5 27.5t-38.5 20q-69 -10 -125 -13.5t-106 -3.5q-49 0 -95 2.5t-95.5 5t-105.5 4t-125 -0.5q-13 0 -29.5 -11.5t-28.5 -27.5t-15 -34t11 -32q6 -7 14 -9t17 -2t18.5 0.5t18.5 0.5q44 -2 84.5 1t78.5 4.5t75.5 -1.5t75.5 -16q-6 -43 -4 -93
t5 -101.5t4.5 -102t-5.5 -94.5t-26.5 -79.5t-57.5 -56.5q-37 -20 -67.5 -14t-56 25t-46.5 44.5t-39 44.5q-8 9 -13.5 13.5t-11.5 6t-14.5 -0.5t-22.5 -6q-12 -4 -17 -14t-5 -23q0 -12 5.5 -25.5t16.5 -23.5q16 -16 39.5 -37.5t52 -42t60.5 -38t64 -27t62.5 -7.5t56.5 20
q43 29 68 72.5t38 96.5t17.5 113t5.5 122l2 124t7 119q36 0 61.5 -2t49 -1.5t47.5 6t56 19.5z" />
    <glyph glyph-name="K" unicode="K" horiz-adv-x="762" 
d="M738 787q-6 9 -17.5 15.5t-24 8t-24.5 -2t-19 -12.5q-24 -31 -54 -66t-63 -69t-68 -64t-68 -52q-17 -11 -50 -27t-70.5 -31t-73 -24.5t-56.5 -7.5q2 88 12 150.5t33 98.5q7 11 11 27t4 31t-4.5 27t-16.5 15q-23 7 -40 4t-30 -11.5t-21.5 -22t-12.5 -27.5
q-26 -82 -37.5 -177.5t-11 -188.5t10.5 -176t28 -139q1 -4 7 -16t14.5 -24t19 -19.5t19.5 -1.5q15 9 22.5 18.5t10.5 20t2.5 23.5t-1.5 29q-2 25 -8.5 52.5t-12.5 54.5t-9.5 50.5t1.5 41.5q32 3 61.5 -7.5t56.5 -24.5q41 -22 77 -39.5t69 -35t65 -37.5t65 -47q14 -11 27 -21
t26.5 -15t27.5 -3.5t30 13.5q7 5 7 15q0 11 -6 24t-16.5 28t-22.5 29q-27 31 -63 60t-73 54.5t-72 48t-62 42.5q50 26 104 62t105 77t95 83.5t73 82.5q7 11 15 23.5t12.5 26t4.5 26.5q0 14 -8 27z" />
    <glyph glyph-name="L" unicode="L" horiz-adv-x="615" 
d="M572 179q-18 15 -41 16t-45 0q-38 0 -75.5 -10t-75 -22t-75 -21.5t-74.5 -9.5q-32 70 -40.5 143t-1.5 145.5t25 144t40 138.5q6 18 16 38.5t10 38.5q0 24 -12 34.5t-27.5 9t-32 -13t-25.5 -30.5q-36 -77 -57 -160t-29 -169.5t-4 -176.5t18 -181q4 -26 8.5 -48t24.5 -39
q19 -15 41 -13t45 7q42 8 83 20.5t83 25.5t85.5 23.5t91.5 14.5q21 2 37 11.5t23.5 23t4.5 29.5t-21 31z" />
    <glyph glyph-name="M" unicode="M" horiz-adv-x="982" 
d="M970 55q7 0 6 14.5t-6.5 34.5t-13 42t-11.5 36q-16 60 -28.5 125t-22.5 131.5t-17 133t-12 130.5q-1 14 2.5 32t5.5 35t0 30t-14 17q-20 7 -39 0t-36.5 -21.5t-33 -34t-28.5 -38.5q-31 -44 -62 -95.5t-62.5 -104t-62 -104.5t-59.5 -98q-13 27 -19.5 38.5t-13 21t-17 25
t-32.5 51.5q-8 13 -17 37.5t-17 51.5t-14 51.5t-8 37.5q-5 27 -5 50t-2 46q-1 14 -11 27.5t-24 20.5t-29 4.5t-25 -20.5q-34 -54 -64 -118t-56 -133t-47.5 -142t-37.5 -146q-5 -21 -11 -52t-8 -63t1.5 -59.5t18.5 -41.5q23 -22 34.5 -14.5t17 28t6 46.5t1.5 41q2 46 13 88
t30 84t44.5 84.5t57.5 88.5q26 -35 48.5 -66.5t41.5 -63.5t35 -66t30 -72q9 -25 14 -39t9.5 -25t10 -22.5t14.5 -31.5q11 -25 27.5 -33.5t32.5 -7t27.5 10t12.5 18.5q2 24 2.5 45.5t2.5 43t7 44t15 48.5q16 42 35.5 77t40 68.5t41.5 69t40 77.5q22 -19 37 -48.5t26 -66
t19.5 -77t17.5 -80.5t20 -77.5t27 -67.5q32 -59 94 -56z" />
    <glyph glyph-name="N" unicode="N" horiz-adv-x="738" 
d="M700 754q-2 20 -12.5 36t-23 19.5t-23.5 -8t-14 -47.5q-3 -42 -5.5 -103.5t-7.5 -133.5t-15 -148.5t-28 -147.5q-44 31 -96.5 76t-102.5 96t-92.5 106t-67.5 108q-16 32 -22 61t-14 64q-4 19 -16.5 33.5t-27 18t-28 -7.5t-19.5 -44q-13 -70 -26 -150t-20 -162.5
t-5.5 -164t18.5 -154.5q3 -13 6.5 -28t9 -28.5t14 -23.5t21.5 -13q32 -7 43 1t10 25t-8.5 38.5t-12.5 41.5q-6 21 -14.5 62t-13 89t-1 98.5t23.5 91.5q60 -41 108.5 -92t95 -103t95 -100t110.5 -84q15 -9 32 -22t35 -23.5t37 -15t37 3.5q14 7 16.5 21t0 31t-6.5 35t-3 33
q8 105 12.5 197.5t6 170.5t0 140.5t-5.5 106.5z" />
    <glyph glyph-name="O" unicode="O" horiz-adv-x="845" 
d="M791 612q-26 63 -73 102t-105.5 58.5t-124 21t-128.5 -11.5q-51 -10 -92 -33t-73.5 -54.5t-58.5 -71t-47 -82.5q-19 -38 -35.5 -81.5t-26.5 -89.5t-12 -92.5t9 -88.5t37 -78.5t71 -62.5q79 -46 151 -49.5t138.5 18t128 59t120.5 74.5q51 32 86 83.5t51.5 113.5
t13.5 130.5t-30 134.5zM690 511q15 -59 -1 -113.5t-51.5 -100t-85.5 -80t-104 -52.5q-37 -13 -83 -24.5t-90 -11t-81 20.5t-55 70q-23 63 -18 122t27.5 110.5t57.5 92.5t73 67q58 40 123.5 53.5t124.5 0.5t103.5 -51.5t59.5 -103.5z" />
    <glyph glyph-name="P" unicode="P" horiz-adv-x="686" 
d="M656 615q8 45 -8 76t-45.5 52t-67 34t-73.5 23q-47 13 -104 14.5t-110 -9.5t-94 -34t-55 -57q-23 -54 -37.5 -130t-19 -160t0 -168.5t18.5 -155.5q7 -33 17 -62.5t36 -49.5q12 -9 20.5 -8t14 8.5t8 19.5t1.5 25q-1 24 -7.5 42.5t-11 39.5t-4 49t14.5 71q80 20 164 51.5
t155 77.5t122 108t65 143zM515 633q21 -22 7.5 -53t-44.5 -62t-70.5 -57.5t-70.5 -38.5q-14 -6 -36.5 -13.5t-47.5 -14.5t-50.5 -12.5t-44.5 -5.5q-3 35 -0.5 70.5t9.5 70t17 67.5t21 63q35 22 77.5 33t85.5 10t81.5 -15t65.5 -42z" />
    <glyph glyph-name="Q" unicode="Q" horiz-adv-x="887" 
d="M853 21q0 12 -4.5 20t-10.5 14t-13 10.5t-13 9.5q-32 26 -56 41t-46 39q33 42 63 86.5t49 97t22.5 114t-15.5 136.5q-16 63 -53.5 106t-86 69t-103.5 35t-106 5q-66 -6 -133 -39.5t-125 -84.5t-103 -114.5t-68 -128.5q-15 -41 -26 -95t-8 -108t26.5 -102.5t79.5 -78.5
q55 -30 108.5 -44.5t109 -12t116 21t131.5 53.5q36 -17 76 -33.5t91 -38.5q14 -6 31 -8t32 0t25 9.5t10 20.5zM736 543q6 -40 3 -76.5t-16 -72.5t-37 -73.5t-61 -77.5q-24 5 -43 19.5t-36 33.5t-35 38.5t-39 34.5q-13 9 -28 13.5t-30 -1t-30.5 -22t-28.5 -47.5
q-5 -12 4.5 -23.5t17.5 -22.5q9 -12 24 -24.5t31.5 -25t31.5 -25t24 -24.5q-23 -14 -65 -27.5t-89 -18t-93 3.5t-78 38q-32 29 -41 72.5t0 92.5t33.5 99.5t60 94.5t80.5 76.5t94 45.5q28 7 63 15t71 11.5t71 0.5t64 -17t49.5 -40.5t27.5 -70.5z" />
    <glyph glyph-name="R" unicode="R" horiz-adv-x="758" 
d="M731 60q8 9 0 21t-23.5 24.5t-33.5 24t-29 19.5q-24 17 -54.5 33.5t-59.5 33.5t-54 35t-40 38q29 14 53 25t61 22q37 12 75.5 40.5t65.5 68t36 88t-14 99.5q-24 53 -71.5 92t-107.5 59.5t-127 19.5t-130 -29q-33 -15 -66.5 -22.5t-62 -20t-49 -34.5t-26.5 -65
q-12 -75 -21 -151t-10.5 -150.5t7.5 -147t34 -140.5q9 -26 19.5 -38.5t20 -16.5t17 -1t11.5 9q11 21 7 44t-5 46q-1 18 -4 37t-5 39t-1 42t8 48q48 -5 97.5 -22t91.5 -42q28 -17 65.5 -41.5t77 -48.5t77.5 -44t67 -26q35 -8 60 3.5t43 28.5zM600 587q12 -21 12 -39
q0 -17 -9.5 -32t-28 -27.5t-42.5 -24.5q-23 -12 -52.5 -23.5t-60.5 -22t-61.5 -19t-54.5 -15.5q-46 -13 -79.5 -12t-56.5 3q-3 17 1.5 41.5t10.5 53t10 60t-1 64.5q15 18 37.5 32t50.5 23.5t59 14.5t62 5t62 -5t58.5 -15.5t49 -26t33.5 -35.5z" />
    <glyph glyph-name="S" unicode="S" horiz-adv-x="803" 
d="M771 302q4 20 8.5 49t3 56.5t-11 48.5t-32.5 27q-43 10 -79.5 11t-71 -2.5t-68 -9t-69.5 -8.5q-35 -3 -70.5 -9.5t-71 -10t-70.5 -1t-69 17.5q24 47 72 89t114 73t148.5 47t175.5 10q17 -1 29 14.5t14.5 35.5t-7.5 38.5t-37 24.5q-115 23 -225 -8.5t-204 -100.5
q-27 -20 -58 -48t-60.5 -60.5t-55.5 -66t-43 -64.5t-23 -56.5t4 -40.5q18 -29 58 -38.5t90 -9t103.5 8t98.5 13.5q64 8 109.5 16.5t79.5 12t60 1t51 -17.5q-5 -53 -27 -85t-55 -53t-73.5 -35.5t-82.5 -32.5q-28 -12 -58.5 -16t-59 -2t-54 7.5t-44.5 13.5q-15 6 -25.5 14
t-19 12.5t-17 3t-19.5 -13.5t-14 -33t1.5 -43.5t16.5 -41.5t32 -25q52 -17 106 -17.5t106 9t100 27t89 37.5q38 18 71.5 43t60.5 55t46 64t27 70z" />
    <glyph glyph-name="T" unicode="T" horiz-adv-x="893" 
d="M900 709q-3 22 -13.5 35.5t-29.5 21.5t-45 11t-60 3q-63 1 -143.5 0.5t-168 -3.5t-177.5 -9.5t-171 -16.5q-30 -4 -48 -17t-25.5 -30t-5 -35.5t11.5 -32.5t24.5 -22t35.5 -3q60 14 119 25.5t128 7.5q-1 -39 -5 -135.5t3 -252.5q1 -29 1 -53v-44t0.5 -41t2.5 -41
q1 -16 8.5 -33.5t19.5 -31t28.5 -19t35.5 2.5q12 5 17.5 16.5t7 25t-0.5 28t-3 25.5q-4 31 -9.5 72.5t-10 89.5t-5 101.5t6.5 110.5q5 43 9 66.5t7.5 40.5t6 33.5t4.5 44.5q32 10 75 12t89.5 1.5t94 -1.5t89.5 3q14 1 31 3.5t32 7.5t24.5 13t8.5 20z" />
    <glyph glyph-name="U" unicode="U" horiz-adv-x="754" 
d="M723 808q-39 -2 -59.5 -16.5t-37.5 -44.5q-30 -54 -39.5 -118t-11.5 -132.5t-3.5 -138t-16.5 -134.5q-32 -21 -72 -47t-84 -44.5t-89 -23.5t-87 16q-54 27 -78.5 72.5t-28.5 100t8.5 115.5t31 118.5t38.5 109t33 87.5q3 9 5 23t-3.5 26t-20 18t-42.5 -1q-23 -6 -38 -26
t-24.5 -44t-15 -48.5t-9.5 -40.5q-14 -59 -27.5 -120t-21 -120.5t-7 -116t15 -106.5t45.5 -92t83 -73t111.5 -29.5t134.5 32.5q51 20 88.5 34t69.5 30q7 -20 21 -34t28.5 -21t27.5 -7t19 7q10 11 14 31t5 42.5t-1 45t-4 38.5q-8 49 -9 110.5t4 129t15.5 138.5t25.5 140
q4 18 10 38.5t9 37.5t1 28t-14 10z" />
    <glyph glyph-name="V" unicode="V" horiz-adv-x="778" 
d="M772 696q14 17 16.5 32.5t-4.5 25t-22 10.5t-36 -10q-17 -9 -31.5 -23t-25.5 -29q-51 -69 -93.5 -135t-80 -132.5t-71.5 -134t-67 -139.5q-44 61 -80 115t-62.5 115t-44 137t-23.5 181q-1 18 -0.5 34.5t-3.5 28t-14 16t-32 -2.5q-24 -8 -36.5 -20t-17.5 -25.5t-4 -28
t3 -26.5q17 -102 42 -206.5t64.5 -197.5t96 -168t136.5 -118q17 -9 30 -1.5t23 22.5t16.5 32.5t10.5 28.5q9 25 24 67t36.5 94.5t48 112.5t58.5 120.5t68 118.5t76 106z" />
    <glyph glyph-name="W" unicode="W" horiz-adv-x="948" 
d="M931 768q-10 19 -21 13t-21 -24t-18.5 -40.5t-12.5 -35.5q-22 -63 -45 -113t-47.5 -98t-49.5 -98.5t-51 -114.5q-34 37 -59.5 80.5t-46 90.5t-38.5 95t-36 95q-6 15 -6 33q0 19 -0.5 36t-4.5 29.5t-17 16.5q-9 3 -19.5 -6t-21 -24.5t-20.5 -35t-19 -38.5
q-20 -43 -42.5 -96.5t-46 -108.5t-47.5 -107t-46 -92q-36 44 -55 96t-28.5 108t-12 113.5t-5.5 112.5q-1 15 0.5 37t0.5 41.5t-5 30.5t-16 4q-14 -9 -22.5 -22.5t-14 -29.5t-9 -34t-6.5 -36q-12 -74 -7 -153.5t22 -159t43.5 -156.5t56.5 -147q10 -24 27.5 -30.5t36.5 5
t36 39.5t27 72q21 97 66.5 188.5t105.5 161.5q19 -41 38.5 -91.5t43.5 -106t54.5 -115t72.5 -118.5q20 -28 41.5 -32.5t30.5 9.5q8 14 11.5 27t5 26t2.5 26t4 28q18 75 41.5 142t48 129.5t48 124t41.5 126.5q4 15 9.5 31.5t8.5 33t2 32.5t-8 30z" />
    <glyph glyph-name="X" unicode="X" horiz-adv-x="788" 
d="M763 38q-1 12 -8.5 22.5t-18 19.5t-21.5 16.5t-18 13.5q-52 45 -88 82.5t-63 69.5t-48 59.5t-42 52.5q39 37 75.5 80t70 88.5t64 91.5t56.5 88q7 12 14.5 24.5t12 25t4.5 24.5t-7 23q-7 10 -15 8.5t-16.5 -9t-18 -18.5t-18.5 -21q-36 -40 -70 -85.5t-69.5 -89.5t-75 -84
t-86.5 -68q-35 27 -64.5 65t-56 76.5t-52 72.5t-52.5 53q-10 7 -22.5 14t-25 10.5t-25.5 1.5t-23 -14q-14 -17 -9 -38t15 -41q18 -37 46.5 -76t61 -77t64.5 -73t58 -64q-12 -20 -32.5 -48t-44.5 -61t-47 -69t-39 -71q-5 -11 -13.5 -22.5t-15.5 -23.5t-9.5 -23t3.5 -21
q10 -15 23 -19t25.5 -1t24.5 10.5t21 14.5q22 19 42 53.5t42.5 72t49 71t59.5 49.5q26 -31 56 -66t63 -67t68.5 -58.5t71.5 -41.5q15 -6 37 -14t41.5 -11.5t33 0.5t11.5 22z" />
    <glyph glyph-name="Y" unicode="Y" horiz-adv-x="691" 
d="M699 774q-21 14 -45.5 10t-41.5 -19q-32 -29 -62 -68t-59.5 -84t-59 -93t-59.5 -95q-14 9 -35 24t-45 34.5t-48.5 43.5t-43.5 52q-24 34 -55.5 70.5t-50.5 80.5q-12 26 -26 42.5t-33 6.5q-12 -6 -19 -17t-10 -24t-2.5 -26.5t2.5 -24.5q12 -55 48.5 -107t82.5 -100
t94 -92.5t84 -84.5q-24 -69 -35.5 -122.5t-14.5 -99.5q-1 -12 1.5 -27t10.5 -28.5t22.5 -23t38.5 -10.5q7 0 12.5 7t9 19t5 27t2.5 31q1 25 2.5 46t6.5 45.5t16 57.5t32 81q26 61 58.5 117.5t66.5 105t66 86t57 60.5q9 8 17.5 22t13.5 29t5 28q0 14 -9 20z" />
    <glyph glyph-name="Z" unicode="Z" horiz-adv-x="800" 
d="M780 749q-5 23 -19 33.5t-34 13.5t-44.5 0t-51.5 -7.5t-55.5 -8.5t-55.5 -3q-42 1 -88.5 3t-93 -1t-91 -12t-81.5 -29q-15 -8 -30.5 -18t-27 -22.5t-16.5 -27t0 -30.5q5 -14 18 -16.5t29.5 0t34.5 7.5t33 7q43 4 85 11.5t83.5 10.5t84 -1.5t87.5 -22.5q-39 -42 -85 -87.5
t-101.5 -103t-124 -131t-152.5 -172.5q-9 -11 -19.5 -21t-19 -20.5t-12 -22.5t2.5 -26q7 -20 19.5 -28t28.5 -10t34 -1.5t36 -1.5q57 -6 115.5 0.5t117.5 18t119.5 24.5t121.5 19q24 2 53 7t52.5 14.5t36 24t2.5 37.5q-6 15 -19.5 20t-31 6t-36.5 -0.5t-35 -1.5
q-48 1 -99 -3l-102 -8t-100 -4.5t-94 7.5q46 54 84.5 97.5t72 81t64.5 71t63.5 67t68 70t78.5 79.5q10 10 27.5 22t33.5 26t26.5 30t6.5 33z" />
    <glyph glyph-name="bracketleft" unicode="[" horiz-adv-x="441" 
d="M399 788q-51 18 -93.5 25.5t-79.5 9t-69 -2.5t-62 -8q-10 -2 -16 -13t-8 -25t-0.5 -28.5t7.5 -23.5q-12 -32 -18 -80.5t-7.5 -105.5t0 -119t6 -120.5t11 -109t13.5 -85.5q-12 -21 -7.5 -40.5t17 -35t29 -24.5t27.5 -8t33.5 2t46 1.5t43 2t25.5 3.5q7 3 18.5 6t22.5 7.5
t20.5 9t11.5 10.5q7 18 2 30.5t-17 20.5t-26.5 12.5t-26.5 8.5q-14 4 -30.5 2t-33 -5t-32 -4t-26.5 7q6 33 7.5 82.5t0 106.5t-4.5 118t-5 118t-1.5 105t4.5 80q19 -4 47 -4q29 0 59 3.5t58 10t48 15.5q7 3 13 9t8 12.5t-1.5 13t-13.5 10.5z" />
    <glyph glyph-name="backslash" unicode="\" horiz-adv-x="756" 
d="M691 71q2 28 -8.5 54.5t-28.5 52t-41 51t-46 52.5q-6 7 -20.5 23t-33 36t-39 41.5t-39.5 41t-33.5 33.5t-21.5 20l-278 281q-27 15 -45 15q-17 0 -25 -9.5t-7.5 -26.5t10.5 -36q11 -22 25.5 -41t30 -34.5t29.5 -29t24 -24.5q7 -8 25.5 -27t43 -43.5l52 -52t52 -52.5
t42.5 -43.5t24 -25.5q33 -39 62 -78t57.5 -77t59 -75t66.5 -71q6 -6 16 -6t20 6t18 17t9 28z" />
    <glyph glyph-name="bracketright" unicode="]" horiz-adv-x="470" 
d="M433 785q-11 5 -42.5 14t-77.5 14t-103 2t-120 -23q-20 -6 -36 -22.5t-18 -35.5t2.5 -29.5t13 -15.5t19.5 -6.5t23 -2.5q26 -3 52.5 3t53.5 12.5t54.5 11t56.5 -1.5q-15 -32 -23.5 -79.5t-12.5 -103t-4 -115.5t3.5 -116.5t9 -106t12.5 -84.5q-21 -7 -41 -10t-41 -3.5
t-44 -0.5q-22 0 -47 -2q-12 -1 -26.5 -3t-27 -7.5t-21 -14.5t-9.5 -23q0 -11 13 -19.5t31.5 -15.5t37.5 -10.5t31 -3.5q48 0 75.5 -1t44 -2t26.5 -1q11 0 25 2q7 1 24 10t31.5 25t21 37t-7.5 45q6 33 9 82t4.5 105t2 115.5t1.5 115t2.5 103t6.5 79.5q11 7 18.5 19.5t10 25
t-0.5 23t-13 15.5z" />
    <glyph glyph-name="asciicircum" unicode="^" horiz-adv-x="581" 
d="M476 517q33 -17 53.5 -10t28 24.5t2 38.5t-24.5 33q-51 32 -92 69.5t-84 79.5q-8 8 -16 16.5t-18 15.5q-14 10 -30.5 12t-31.5 -3t-27.5 -16t-19.5 -27q-10 -22 -31 -37.5t-45.5 -29.5t-47.5 -27.5t-38 -31.5q-7 -8 -13 -18.5t-8 -22t2 -23.5t18 -21q10 -7 20 -5.5
t19.5 6t18.5 11t17 10.5q44 20 81.5 49.5t77.5 55.5q43 -39 90 -81t99 -68z" />
    <glyph glyph-name="underscore" unicode="_" horiz-adv-x="642" 
d="M541 14q16 3 31 12.5t19.5 20.5t-6 22.5t-44.5 17.5q-51 10 -105 5t-111 -14t-117 -16.5t-122 -1.5q-18 1 -33 -8.5t-18.5 -23t7.5 -28t44 -22.5q50 -12 107 -11t116.5 8.5t118.5 18.5t113 20z" />
    <glyph glyph-name="grave" unicode="`" horiz-adv-x="448" 
d="M140 769q-18 16 -34.5 18t-28.5 -4.5t-19 -19.5t-7 -27q0 -18 9 -38t22 -31t26.5 -20t30 -17.5t37 -16t48.5 -16.5q22 -6 41.5 -13t38 -12t38 -7t40.5 1q12 2 16 11.5t2 20t-8 19.5t-13 12q-19 7 -36.5 13t-35 12.5t-35 15t-37.5 20.5q-17 10 -29.5 20t-23 20t-20.5 19.5
t-22 19.5z" />
    <glyph glyph-name="a" unicode="a" horiz-adv-x="726" 
d="M712 30q10 3 10 15q0 13 -4 28t-9.5 30.5t-8.5 25.5q-23 82 -47.5 168.5t-54 170.5t-64.5 163t-78 146q-8 13 -23 19t-31 5t-31 -9t-24 -24q-55 -95 -95 -171t-73.5 -146.5t-63.5 -141t-64 -154.5q-11 -26 -20.5 -51t-15 -47t-4 -40t12.5 -29q6 -6 17 -2t22.5 12.5
t19.5 20t8 21.5q0 8 7 25t16.5 35t18.5 33.5t12 21.5q5 -8 17 -6.5t32 7.5t49.5 16t70.5 20q30 8 62.5 13.5t64 10.5t59.5 10.5t50 14.5q7 -12 15.5 -27.5t16 -31t13 -29.5t6.5 -24q4 -27 16.5 -47.5t29 -34t34 -18.5t31.5 1zM490 375l-248 -35q10 33 28.5 70t39 72
t39.5 65.5t30 49.5q14 -19 28 -46t28 -57.5l28 -61t27 -57.5z" />
    <glyph glyph-name="b" unicode="b" horiz-adv-x="758" 
d="M681 190q27 28 32.5 57t-5.5 56t-35 51.5t-57 45t-71.5 35.5t-77.5 22q23 15 49 36.5t49.5 47t42.5 53t27 55t3.5 54t-27.5 49.5q-27 27 -57.5 38.5t-64 14.5t-71.5 1.5t-81 0.5q-49 2 -83.5 1.5t-61.5 -5t-48.5 -13.5t-45.5 -25q-20 -14 -25.5 -26.5t-5 -26t3 -29.5
t-1.5 -37q-2 -27 -2.5 -50t-1 -45l-1 -44t-0.5 -47q-1 -40 -1.5 -86.5t1 -94t5 -92.5t10.5 -82q3 -17 4.5 -39.5t9.5 -41t26.5 -29.5t56.5 -5q98 15 170 28t129 33.5t106 52.5t100 86zM477 686q33 -7 36 -25.5t-16.5 -43.5t-57 -52.5t-84.5 -50.5t-99 -39t-101 -18
q-3 53 1.5 102t23.5 104q72 30 148.5 33.5t148.5 -10.5zM566 260q-17 -25 -44 -45.5t-60 -36t-68.5 -26.5t-69.5 -17q-20 -3 -43.5 -7t-46 -7t-41.5 -5t-29 0q-7 27 -8 51t0.5 48t3.5 49.5t1 55.5q36 9 91.5 13.5t125.5 8.5q26 1 63.5 -4.5t69.5 -16.5t50 -26.5t5 -34.5z
" />
    <glyph glyph-name="c" unicode="c" horiz-adv-x="812" 
d="M772 271q5 23 -3 31.5t-24.5 6.5t-38.5 -12t-46 -23t-46.5 -27t-39.5 -24q-41 -25 -92.5 -46.5t-104 -33t-102 -8.5t-87.5 27q-36 22 -43.5 61.5t5 87t43 99.5t70.5 100.5t87 89t93 64.5q36 19 62.5 23t47.5 -2t37.5 -19.5t32.5 -31.5q17 -19 31 -30.5t36 -4.5
q17 6 27 17t14 25t3 28.5t-5 28.5q-11 34 -36 60.5t-59 42t-73.5 18.5t-78.5 -11q-67 -24 -129 -67t-115.5 -97.5t-96.5 -116.5t-71 -123t-39.5 -117t-1.5 -98q10 -44 34 -83t59.5 -66.5t82 -41.5t101.5 -7q57 7 114 25t111.5 43t105 57t93.5 68q20 17 28 38.5t14 48.5z" />
    <glyph glyph-name="d" unicode="d" horiz-adv-x="844" 
d="M754 326q33 39 51.5 82t18.5 87q0 45 -20 88t-62 82q-34 31 -76.5 52t-92 36t-105 26t-113.5 22q-44 8 -95 8.5t-93.5 -11.5t-68 -38t-18.5 -69q-6 -65 -14.5 -135.5t-13 -143t-2 -145t18.5 -139.5q-11 -19 -11.5 -37.5t7 -36t20.5 -34t29 -32.5q186 28 349 108.5
t291 229.5zM691 494q6 -42 -11 -79.5t-51.5 -71.5t-82.5 -65t-104 -60q-7 -3 -25.5 -10.5t-43 -16.5t-53.5 -18.5t-55.5 -17.5t-48.5 -13.5t-34 -6.5q0 62 -3 127t-5.5 132.5t-3 137.5t4.5 144q29 0 77 -3t103.5 -11t113 -21t105 -33t79.5 -48.5t38 -65.5z" />
    <glyph glyph-name="e" unicode="e" horiz-adv-x="754" 
d="M727 425q1 19 -11 30t-30 18t-39.5 10.5t-37.5 7.5q-50 10 -105 6t-113 -12t-118 -15.5t-118 -3.5q-4 15 -3.5 34t2.5 38t3.5 35t0.5 27q59 34 113.5 48.5t110.5 19t117 3t133 0.5q25 1 49 10.5t30 32.5q4 17 -0.5 29t-15 20t-25 12.5t-29.5 6.5q-39 4 -73.5 5.5t-69 0.5
t-70 -5t-74.5 -10q-36 -6 -74.5 -8.5t-74.5 -7t-66.5 -15t-51.5 -32t-29 -58t1 -93.5q0 -42 -7.5 -94.5t-13.5 -110.5t-7.5 -117.5t10.5 -115.5q6 -27 14 -49t21.5 -38.5t34 -28t52.5 -17.5q46 18 99.5 28t107.5 18.5t105.5 19.5t95.5 31q14 7 29 14t28 16t22.5 20t13.5 26
q2 10 -8 15t-25.5 6.5t-32 1t-27.5 -1.5q-60 -3 -111 -12.5t-100 -18.5t-100 -14t-111 1q-2 34 -1.5 61t2.5 49t4.5 41t3.5 39q39 15 91 20.5t110.5 8t119.5 6t118 15.5q18 4 40 5.5t41.5 5t33.5 11.5t15 25z" />
    <glyph glyph-name="f" unicode="f" horiz-adv-x="729" 
d="M728 710q3 18 -9 30t-31 20.5t-41.5 14.5t-41.5 12q-57 18 -119.5 24t-125 4.5t-124 -7.5t-116.5 -12q-13 -1 -27 -11t-22 -24t-6.5 -30.5t19.5 -30.5q-19 -67 -26 -155t-3 -179t19 -175.5t39 -145.5q5 -13 11 -28t13.5 -26.5t15.5 -16.5t17 4q20 20 20 38q0 19 -4 38
q-12 57 -16 97t6 73q32 9 79.5 15t100.5 12t106.5 14t97.5 22q15 5 31.5 11.5t30.5 15t22.5 19.5t7.5 26q-1 12 -10.5 18t-23 8t-28.5 2.5t-27 1.5q-46 4 -101 0t-109 -10t-101.5 -10t-78.5 1q-5 15 -6.5 28t-1.5 28t1.5 34.5t3.5 48.5q2 41 10 81.5t20 61.5
q81 17 179.5 24.5t206.5 9.5q20 0 43.5 -2t44.5 -1.5t36 6t18 21.5z" />
    <glyph glyph-name="g" unicode="g" horiz-adv-x="861" 
d="M814 315q13 24 21.5 60t7.5 69t-15 55t-45 17q-53 -8 -109 -7t-111 0t-105 -10.5t-90 -39.5q-19 -14 -32 -40t-7 -54q2 -12 11.5 -18t22 -7.5t27 1t26.5 6.5q26 9 64.5 18.5t81.5 16.5t86.5 8.5t79.5 -5.5q-20 -44 -53 -82.5t-74 -70.5t-87.5 -56.5t-93 -41t-90.5 -25
t-80 -6.5q-51 2 -81 20.5t-42 48t-7.5 67.5t22.5 79q23 54 62 109t87 104.5t100.5 89t102.5 61.5q31 14 70 10.5t74 -18.5q31 -14 58.5 -9t44.5 20.5t20 36.5t-14 38q-37 36 -82.5 55.5t-97.5 9.5q-46 -9 -96 -31.5t-100.5 -55t-98 -74t-88.5 -88.5t-73 -97.5t-51 -101.5
q-17 -46 -28 -106t-4.5 -117t36.5 -101.5t96 -59.5q90 -21 184.5 -7.5t182 56.5t162 112.5t125.5 160.5z" />
    <glyph glyph-name="h" unicode="h" horiz-adv-x="881" 
d="M841 73q-12 64 -18 118.5t-8 102.5t0 93.5t5.5 92.5t8.5 98t9 111q1 11 0 28t-5 33t-10.5 26.5t-16.5 9.5q-31 -4 -50.5 -20.5t-28.5 -39.5q-14 -34 -17 -67.5t-2.5 -70t1 -78.5t-6.5 -92q-35 -5 -94 -16t-130.5 -22.5t-149.5 -20t-152 -7.5q-3 15 -4 50t3.5 82.5
t16 102.5t34.5 110q5 12 2.5 29t-9.5 33.5t-18 29.5t-23 16q-23 6 -38.5 -3.5t-25.5 -27.5t-16.5 -40t-10.5 -40q-17 -71 -25 -152.5t-7.5 -164.5t9.5 -163.5t26 -150.5q2 -9 6 -22.5t9.5 -26.5t12.5 -23.5t15 -13.5q18 -6 27 1t12.5 20t3.5 29q0 17 -1 30q-1 19 -4 36
t-4.5 34t-0.5 35t9 38q54 -2 124.5 9.5t144 26.5t144.5 27.5t127 12.5q4 -23 6.5 -40t5.5 -35t7 -40t9 -53q2 -10 6 -23.5t11.5 -28t18 -27t24.5 -21.5q7 -4 16 -5t15.5 5t9.5 21t-3 44z" />
    <glyph glyph-name="i" unicode="i" horiz-adv-x="289" 
d="M217 698q0 7 -4 18.5t-9.5 22.5t-12 20t-11.5 11q-25 11 -39.5 9.5t-22.5 -9.5t-10.5 -19t-3.5 -18q-8 -83 -14.5 -167.5t-8 -167.5t2 -164t14.5 -157q5 -35 28.5 -49.5t56.5 -17.5q14 -2 19.5 10t6 30t-1.5 38.5t-4 35.5q-11 97 -11 178t4.5 151t11.5 130t9 115z" />
    <glyph glyph-name="j" unicode="j" horiz-adv-x="875" 
d="M917 707q-5 14 -17 19.5t-27 7t-31 1.5t-28 2q-57 10 -102.5 13t-91.5 3q-45 0 -98.5 -2t-126.5 -3q-65 -1 -137.5 -1.5t-138.5 -11.5q-14 -2 -28 -4.5t-25.5 -7t-18.5 -13t-6 -22.5t10.5 -26.5t23 -22t29 -16.5t29.5 -8q42 -5 82.5 1.5t80 14t79.5 9.5t81 -12
q12 -57 23.5 -123.5t9.5 -131.5t-25.5 -123t-80.5 -98q-32 -23 -65 -27.5t-65 3t-62.5 24t-58.5 35.5q-8 5 -16.5 13t-17.5 14.5t-18 9.5t-16 -2q-13 -8 -27.5 -19t-23.5 -24t-10 -28t14 -30q36 -38 84 -64.5t101.5 -38t108 -6.5t102.5 29q58 29 92.5 69.5t52.5 89t24 102.5
t7.5 110.5t2 113t7.5 110.5q31 6 59.5 8.5t56.5 3t57 0.5t61 1q12 0 28 5t29.5 12.5t21.5 18t5 22.5z" />
    <glyph glyph-name="k" unicode="k" horiz-adv-x="848" 
d="M790 790q-21 18 -36 18.5t-28 -9t-26 -24.5t-29 -27q-51 -40 -111 -84t-127.5 -85t-142.5 -76t-157 -56q-2 18 -1 37t5 45t12.5 60.5t23.5 83.5q9 29 8.5 46.5t-6.5 28.5t-16.5 18t-23.5 15q-41 26 -59.5 6.5t-26.5 -90.5q-8 -68 -17 -132.5t-12.5 -133.5t0.5 -145.5
t22 -168.5q4 -19 8.5 -38t13.5 -36t25 -30t42 -19q14 -3 19.5 9.5t6 32t-2.5 40.5t-6 35q-13 52 -17 93t8 75q82 -3 154.5 -25t138.5 -54.5t128 -69.5t124 -68q26 -14 45 -12t35 29q17 32 7 59.5t-36 41.5q-42 23 -90.5 46.5t-98.5 48t-100.5 50t-98.5 52.5q56 30 113 66.5
t113 78t109.5 85.5t102.5 88q7 6 12 19t6.5 27.5t-1.5 27.5t-12 21z" />
    <glyph glyph-name="l" unicode="l" horiz-adv-x="683" 
d="M659 232q-5 10 -19 11.5t-31 -1.5t-34 -9t-28 -10q-50 -18 -95 -26t-88 -11.5t-85.5 -6t-88.5 -10.5q-29 96 -31 167.5t8.5 130.5t26 113t22.5 115q2 14 1.5 26.5t-6 23t-17 20t-31.5 17.5q-15 6 -24.5 -1.5t-16 -21t-10 -30.5t-5.5 -31q-12 -72 -21 -153t-15 -155.5
t-8 -134.5t1 -91q6 -58 20 -90t35 -45.5t47.5 -12t57.5 12.5q37 13 82.5 22t91 17.5t87.5 16t71 17.5q20 6 43 18t40.5 29t24.5 38t-5 45z" />
    <glyph glyph-name="m" unicode="m" horiz-adv-x="1158" 
d="M1135 50q3 16 1.5 28.5t-6 24t-11.5 24.5t-13 30q-25 66 -38.5 134t-24 136.5l-21 137t-29.5 135.5q-10 33 -19 47t-26 15q-30 1 -46 -7t-24.5 -21t-13.5 -27t-12 -25q-43 -65 -79 -129.5t-71 -127.5t-72 -124t-83 -118q-35 61 -58.5 120.5t-44.5 119t-45 119.5t-60 122
q-12 21 -15.5 40t-5 35t-4.5 27t-13 16q-30 14 -53 8t-40.5 -23.5t-29 -41t-17.5 -43.5q-19 -62 -46.5 -125t-51.5 -126t-40 -126.5t-13 -127.5q1 -17 7 -40t16.5 -44t25 -36.5t32.5 -18.5q18 -2 24.5 7t6.5 24t-2.5 33.5t-2.5 36.5q0 22 4.5 62.5t15.5 93.5t31 115t50 127
q42 -58 71.5 -110.5t56.5 -104t55.5 -104.5t67.5 -113q8 -12 15 -27t16 -28.5t20 -24t26 -14.5q16 -5 35.5 -4.5t36 5.5t28 16t13.5 28q4 54 26.5 112.5t54 118t68.5 119.5t70 117q35 -53 52.5 -112t31 -117.5t29.5 -115t49 -105.5q8 -12 23 -22.5t30 -15t27 -2t15 16.5z
" />
    <glyph glyph-name="n" unicode="n" horiz-adv-x="967" 
d="M910 716q-1 14 -3.5 33.5t-10 32t-22 13t-39.5 -23.5q-17 -15 -25 -26.5t-10.5 -22t-2.5 -20.5v-23q-1 -43 2.5 -102t3.5 -122q0 -62 -8 -120.5t-32 -99.5q-74 32 -155 83t-158 110.5t-144.5 123.5t-115.5 122q-6 34 -19 58t-28 35t-28 7.5t-18 -24.5q-18 -77 -27 -152
t-11 -150t2 -150.5t10 -153.5q1 -10 1.5 -26.5t2.5 -35t5 -35t8.5 -26.5t13.5 -10.5t19 13.5q17 22 27.5 36.5t16.5 27t8 27.5t2 39q0 44 -6 86t-9.5 85.5t-1 89.5t20.5 98q21 -46 60 -90.5t89 -87t106.5 -82t112.5 -74.5t107.5 -65.5t91.5 -54.5q22 -14 38.5 -27.5
t32 -21.5t31.5 -7t36 18q19 16 20 32t-6 33t-15.5 36t-7.5 42q3 63 10 133t14 141t11 142t0 136z" />
    <glyph glyph-name="o" unicode="o" horiz-adv-x="920" 
d="M882 616q-12 41 -33 67t-49.5 42.5t-62.5 26.5t-71 19q-60 14 -112.5 13t-106.5 -10q-49 -8 -97.5 -26t-93.5 -46.5t-85 -67.5t-70 -88q-36 -58 -55 -125.5t-22.5 -133.5t9 -125t40.5 -100q24 -36 71 -52t109 -16t135 14.5t148 41.5q88 30 162.5 89.5t124 136t67.5 164.5
t-8 176zM730 599q27 -13 39.5 -39t12 -58.5t-13 -70t-35 -74.5t-53.5 -70.5t-69 -58.5q-46 -30 -97 -51t-103 -32.5t-102.5 -13t-94.5 7.5q-38 7 -58.5 33.5t-27 63t-0.5 80t21.5 85t39.5 77.5t53 59q48 37 99 66.5t109.5 42t127.5 3t152 -49.5z" />
    <glyph glyph-name="p" unicode="p" horiz-adv-x="758" 
d="M741 602q-24 31 -67.5 63t-94.5 59.5t-102.5 48t-90.5 29.5q-41 9 -85.5 6.5t-86 -13t-76 -26.5t-56 -33t-26.5 -33.5t14 -27.5q-5 -57 -11.5 -127.5t-9 -147t1 -154.5t17.5 -149q7 -33 23 -61.5t42 -48.5q12 -9 20.5 -8t14 8.5t8 19.5t1.5 25q-1 23 -5 42.5t-7.5 41
t-5 49t1.5 66.5q49 12 98.5 23.5t98.5 25t98 30.5t98 41q19 9 45.5 24t54 34.5t52 42t39 47t15.5 51t-19 52.5zM602 573q24 -18 25.5 -34t-12.5 -31t-39.5 -28.5t-54.5 -25t-57.5 -21.5t-48.5 -18q-28 -11 -66 -19.5t-75.5 -13t-69 -5.5t-46.5 3q-7 69 -5 137.5t24 128.5
q35 22 83.5 29.5t104.5 -1t116.5 -33.5t120.5 -68z" />
    <glyph glyph-name="q" unicode="q" horiz-adv-x="904" 
d="M901 -32q9 5 3.5 15t-16.5 20.5t-24.5 20.5t-20.5 16q-22 16 -35 30.5t-22.5 28t-17.5 26.5t-21 26q15 21 33 50.5t35 64t30.5 73t19 78.5t0.5 80.5t-25 78.5q-22 42 -53.5 83.5t-69 74.5t-81 52.5t-89.5 16.5q-74 -4 -143 -36.5t-130 -83.5t-111.5 -116.5t-87.5 -135.5
q-16 -31 -27 -70.5t-15 -82.5t0 -86t17 -80.5t36.5 -66t59.5 -42.5q59 -23 127 -26t134.5 9t126.5 36.5t104 54.5q34 -14 65 -41t62.5 -50t64.5 -32t71 14zM747 495q9 -41 4.5 -76.5t-18 -67.5t-34 -61t-44.5 -56q-28 10 -50.5 27t-44 35t-44.5 33t-52 22q-20 5 -43 7
t-46 -10q-15 -8 -27 -22.5t-17 -30.5t-1.5 -29.5t20.5 -19.5q27 -10 49 -17.5t42 -16.5t39 -22t39 -33q-33 -9 -74 -23t-85.5 -23.5t-89.5 -9t-86 21.5q-39 27 -54.5 58t-15.5 64t13 67t31 66.5t38.5 62.5t36.5 55q25 41 69 76.5t96.5 59t108 31.5t104 -6t85 -53t51.5 -109z
" />
    <glyph glyph-name="r" unicode="r" horiz-adv-x="781" 
d="M758 88q10 16 5 30t-17.5 25.5t-28.5 21.5t-29 18q-63 41 -135.5 69.5t-147.5 58.5q40 25 76 43t69.5 35.5t64.5 36t63 44.5q17 15 36.5 37t33.5 48t17.5 55t-10.5 57q-21 41 -49.5 67t-63.5 41.5t-75.5 22.5t-85.5 10q-44 3 -91.5 0t-94 -10t-90.5 -16.5t-82 -18.5
q-29 -8 -41.5 -19t-15 -22.5t2.5 -23t10 -18.5q-10 -71 -18 -148t-11 -155t0 -156t15 -151q7 -40 22.5 -67.5t53.5 -36.5q21 -5 31 4t13 25t0 35t-7 34q-9 30 -12.5 52t-4.5 39.5t-0.5 33t1.5 32.5q67 -3 131.5 -19t126 -38t119.5 -47t113 -47q13 -6 28.5 -8.5t30.5 -1t27 8
t20 19.5zM607 626q14 -22 -3 -49t-53.5 -55t-87.5 -54.5t-104.5 -47t-104.5 -32.5t-89 -11q0 24 -2.5 54t-3.5 63.5t1.5 67.5t13.5 65q30 16 71 28t85 18.5t88.5 7t82 -5t66 -18t40.5 -31.5z" />
    <glyph glyph-name="s" unicode="s" horiz-adv-x="917" 
d="M859 243q33 31 39 68t-7.5 70.5t-42.5 59t-66 33.5q-91 19 -168 19q-76 0 -143 -7.5t-127.5 -16t-118.5 -5.5q25 33 56 61.5t72.5 55t95.5 50t125 45.5q22 7 39 4t31.5 -11.5t28.5 -19.5t31 -19q16 -8 35.5 -2t33.5 21.5t18 38t-12 49.5q-12 20 -28.5 31.5t-35.5 17
t-38 7t-36 1.5q-30 0 -72.5 -11t-92.5 -31t-104.5 -48t-108 -61t-102 -71t-86.5 -77q-14 -14 -23 -27t-13.5 -26.5t-3.5 -29t9 -36.5q6 -17 18.5 -26t28.5 -13t33.5 -5t34.5 -2q77 -3 144.5 4t135 15.5t140.5 12.5t160 -6q19 -2 28.5 -11t8.5 -21.5t-12.5 -27t-33.5 -27.5
q-55 -33 -116 -64t-126 -51t-132.5 -23.5t-133.5 17.5q-12 4 -23.5 18t-23.5 25t-24.5 11.5t-24.5 -22.5q-12 -21 -15.5 -45.5t3 -47.5t23.5 -42t45 -29q65 -23 153.5 -14.5t182.5 41t183.5 85t157.5 115.5z" />
    <glyph glyph-name="t" unicode="t" horiz-adv-x="884" 
d="M891 716q2 17 -5 29t-23 17q-41 15 -90.5 19t-102 2.5t-105.5 -6t-102 -8.5q-95 -7 -185 -16t-179 -23q-10 -1 -25 -1q-14 0 -27.5 -1.5t-23.5 -5.5t-11 -13q-2 -26 5.5 -47.5t21 -36.5t31 -23t35.5 -8q32 0 67 7t70.5 15t71 13t67.5 2q6 -65 8.5 -134t2.5 -137
t-1.5 -132t-2.5 -119q0 -17 2.5 -35.5t9.5 -35.5t18.5 -29.5t29.5 -15.5q20 -4 33 9.5t19 34.5t6 44q0 24 -4 41q-8 30 -11 59.5t-4 61t-1 65.5q0 35 -1 76q-2 78 6.5 144.5t8.5 112.5q26 2 61.5 4.5t75 5t80.5 5.5t79 7q15 1 31 5t30 10.5t23.5 15.5t10.5 22z" />
    <glyph glyph-name="u" unicode="u" horiz-adv-x="834" 
d="M799 681q1 13 1.5 27.5t-1.5 28t-8 25t-17 19.5q-22 15 -39.5 14.5t-30 -9.5t-19.5 -23.5t-9 -27.5q-8 -54 -12.5 -114t-6 -121.5t-0.5 -122.5t4 -116q-41 -56 -101.5 -91.5t-123 -52t-119 -14.5t-89.5 22q-45 27 -63.5 67.5t-20 90t9 106t23.5 114.5q14 63 35.5 112
t33.5 82.5t6.5 52.5t-45.5 24q-7 1 -22.5 0t-33.5 -13t-35 -41t-27 -84q-8 -45 -20 -101.5t-20.5 -118t-10.5 -123.5t10 -116.5t40.5 -99t80.5 -70.5q70 -35 134.5 -34t128.5 20.5t128.5 49t133.5 51.5q16 -22 32.5 -31t29 -2t17.5 31t-2 68q-8 42 -9.5 91.5t1 100.5
t7.5 101t10.5 93.5t10.5 78.5z" />
    <glyph glyph-name="v" unicode="v" horiz-adv-x="870" 
d="M868 795q-30 5 -60 -6.5t-50 -33.5q-52 -59 -96 -135t-87 -155.5t-88 -155t-99 -132.5q-39 52 -72 109.5t-64 128t-62 158.5t-67 202q-5 15 -24 14.5t-38 -12t-32 -32.5t-5 -48q31 -112 67 -198t77.5 -161.5t90 -149.5t104.5 -161q19 -29 42 -28.5t45.5 17.5t42 43.5
t30.5 47.5q36 68 72 143t72.5 150t73 147.5t71.5 135.5q7 13 21 31.5t26 35.5t16.5 30t-7.5 15z" />
    <glyph glyph-name="w" unicode="w" horiz-adv-x="1144" 
d="M1154 737q-17 27 -34 38t-31.5 11.5t-25.5 -8.5t-16 -23q-30 -82 -55.5 -153.5t-50.5 -136t-51 -122.5t-56 -112q-55 66 -86 123.5t-49 109.5t-28.5 99.5t-22.5 93.5q-3 12 -5.5 28.5t-7 32t-11.5 26.5t-20 13q-14 2 -26 -5t-23.5 -19.5t-22 -29.5t-22.5 -36
q-36 -56 -68.5 -109t-63.5 -105.5t-62 -105.5t-63 -108l-16 -1q-58 93 -78 193t-7 200q2 17 0 35.5t-11.5 33.5t-27.5 25t-48 9q-17 0 -26.5 -14.5t-13 -34.5t-3 -42.5t2.5 -38.5q10 -66 20.5 -129t26 -125.5t38.5 -125.5t58 -129q7 -14 17.5 -30.5t23 -30.5t28 -22t33.5 -6
q19 2 30.5 15.5t19 32.5t13.5 39.5t14 37.5q21 47 40 98t39 101.5t44 98.5t55 90q30 -54 56 -104.5t54.5 -100.5t62.5 -100t79 -103q12 -14 23 -28t23 -25.5t26 -18.5t32 -5q12 1 17.5 11t8 24t3 29t3.5 27q15 59 31.5 110t41.5 111t62 136t91 185q3 7 7.5 16.5t7.5 19
t3.5 19t-3.5 15.5z" />
    <glyph glyph-name="x" unicode="x" horiz-adv-x="756" 
d="M780 777q-10 13 -25.5 17.5t-32 3t-32.5 -7t-28 -11.5q-40 -21 -74.5 -59t-68 -81.5t-69 -86.5t-77.5 -74l-301 255q-28 13 -45.5 11.5t-25 -11.5t-5.5 -27t13 -35q13 -21 29.5 -38.5t33 -32t32 -27t26.5 -22.5t32.5 -31.5t44.5 -46.5t41.5 -48t23.5 -36
q-20 -33 -46 -67.5t-53.5 -69t-53.5 -68.5t-46 -65l-17 -25.5t-15 -27t-6.5 -27t9.5 -23.5q12 -13 27.5 -14.5t30.5 3.5t28.5 16t22.5 23q24 32 46 69t46 72t51 64t61 45q43 -17 81 -45.5t74 -62t72 -69t75 -66.5q6 -5 16 -4t20 7.5t16.5 18.5t6.5 29q-1 28 -13.5 53.5
t-33 49t-45.5 47t-50 48.5q-10 10 -25.5 26t-32.5 32t-33 30.5t-26 21.5q51 61 91 105t72.5 75.5t59.5 53t51 37.5q12 8 24 20t20 25t10 26.5t-7 24.5z" />
    <glyph glyph-name="y" unicode="y" horiz-adv-x="815" 
d="M845 779q-18 10 -32 10t-26 -6t-23 -17t-23 -22q-29 -28 -56 -59.5t-53.5 -68.5t-54.5 -80t-58 -94q-47 4 -89.5 22t-81.5 43.5t-74.5 57.5t-68 64t-62.5 62.5t-57 53.5q-14 12 -27.5 11t-22 -10t-11 -25t6.5 -34q27 -57 74.5 -114t104 -108t115 -93t107.5 -69
q-14 -54 -40.5 -96t-48.5 -74q-9 -13 -13.5 -33t-2 -39.5t14 -34.5t35.5 -18q14 -2 24.5 6.5t19 22t15.5 29t15 26.5q27 39 53.5 87.5t53.5 102t54.5 109.5t57 109t61 101t67.5 86q8 9 20.5 22t21.5 26.5t12 25.5t-8 18z" />
    <glyph glyph-name="z" unicode="z" horiz-adv-x="865" 
d="M834 88q11 13 0.5 23.5t-31.5 18.5t-45.5 13.5t-41.5 8.5q-57 10 -118 7.5t-122 -8.5t-118.5 -10t-106.5 2q38 46 95 112t123.5 136.5t138.5 139t139 120.5q18 14 34.5 23t27.5 18.5t14.5 23.5t-5.5 38q-4 11 -11.5 16t-16.5 6.5t-19.5 1t-20.5 1.5q-88 11 -162.5 16
t-148.5 3.5t-155 -10t-181 -24.5q-18 -3 -30 -23t-16 -43t1 -42t22 -21q10 -1 37.5 3t58.5 10t58.5 11t37.5 6q71 6 146 3.5t151 -13.5q-53 -78 -116.5 -142.5t-130 -128.5t-133 -135t-126.5 -161q-13 -20 -14 -37.5t6 -31t19 -21t26 -7.5q69 2 145 13t153 22.5t153 21
t144 8.5q18 0 37.5 -0.5t38 2.5t35 9.5t28.5 20.5z" />
    <glyph glyph-name="braceleft" unicode="{" horiz-adv-x="500" 
d="M456 552q-12 51 -42 89t-67.5 69t-76.5 56t-69 50q-7 6 -17 6.5t-17 -6t-7 -22.5q0 -15 14 -42q15 -31 43 -62.5t61 -59t66 -49.5t59.5 -33.5t41.5 -11.5t11 16zM379 400q-28 18 -60 24.5t-66 6.5t-69 -4.5t-69 -8.5q-21 -3 -51.5 -10.5t-54.5 -22t-33 -37.5t12 -57
q4 -7 38 -3.5t81.5 13t100.5 23t95 28t65 27.5t11 21zM424 160q-35 -3 -80 -18.5t-90.5 -38t-86 -48t-65 -48.5t-28.5 -40.5t23 -24.5q31 -8 74 6t86.5 38.5t83 55.5t65.5 58t33 44.5t-15 15.5z" />
    <glyph glyph-name="braceright" unicode="}" horiz-adv-x="556" 
d="M456 834q-24 6 -56 -4.5t-67 -31t-71 -49t-68.5 -59t-58.5 -60t-41 -52t-17 -36.5t15 -12q34 3 82 25t97.5 53.5t94.5 68t74 69.5t36 57t-20 31zM524 446q-4 6 -39.5 3.5t-85.5 -10.5t-105.5 -20.5t-100 -25.5t-69 -25t-12.5 -20q28 -18 60 -25t66 -6.5t69 5t69 8.5
q14 2 34.5 5t41.5 8t40 13.5t30.5 20.5t13.5 29t-12 40zM400 -34q-21 28 -53 52t-67.5 43t-70.5 31.5t-61.5 17t-40.5 0t-7 -19.5q21 -48 55 -77t74 -48t80.5 -33.5t74.5 -33.5q8 -4 18 -3t15.5 9t3 23t-20.5 39z" />
    <glyph glyph-name="degree" unicode="&#xb0;" horiz-adv-x="423" 
d="M404 696q-13 31 -36.5 51t-53 29.5t-62.5 10t-64 -5.5q-52 -10 -83 -43.5t-53 -76.5q-14 -28 -25 -62.5t-11.5 -69t12 -65t46.5 -50.5q39 -23 75 -24.5t69.5 9t64.5 29.5t60 37q25 16 42.5 42t26 57t7 65t-14.5 67zM308 626q5 -20 -0.5 -38.5t-17.5 -33.5t-28.5 -26.5
t-34.5 -17.5q-13 -5 -28.5 -9t-30 -3.5t-27 7t-18.5 23.5q-8 21 -6 41t9.5 37t19 30.5t24.5 22.5q19 13 41.5 18t42 1t34.5 -17t20 -35z" />
    <glyph glyph-name="sterling" unicode="&#xa3;" horiz-adv-x="8302" 
d="M3600 136q-37 13 -78 17.5t-84 4t-86.5 -3t-84.5 -2t-79 6.5t-70 22q-10 56 -1 92.5t32 58t57.5 31t74 12.5t81.5 2t81.5 -0.5t73 4.5t55.5 18v46q-44 17 -95.5 18.5t-105.5 -0.5t-107 -0.5t-101 18.5q-10 21 -6 37t11.5 31.5t13.5 31.5t-1 37q21 34 48 73t60.5 68
t72.5 40.5t83 -8.5q-3 -24 -15.5 -48t-21 -49t-7 -50.5t25.5 -52.5q20 20 42.5 44t41 51t31 58t12.5 65q-3 27 -16 46.5t-31 32t-39 20t-41 10.5q-66 -2 -115.5 -25.5t-86.5 -61t-63.5 -85.5t-45.5 -99.5t-34 -104t-28 -97.5q-12 -23 -34 -30.5t-48.5 -9t-52.5 -1.5
q-25 0 -43.5 -7.5t-25.5 -27t4 -60.5q13 -12 29 -11t33 7t34.5 14t35 12t35 0t33.5 -22q9 -37 7.5 -66t-7.5 -54t-13.5 -48t-10.5 -47t1.5 -51.5t22.5 -61.5q34 36 81.5 49.5t100.5 15.5t108 -1t104.5 2t89 24.5t62.5 64.5z" />
    <glyph glyph-name="bullet" unicode="&#x2022;" horiz-adv-x="375" 
d="M327 440q-14 36 -39.5 54t-55.5 21t-61.5 -7.5t-56 -31t-39.5 -50t-13 -64.5q1 -24 11 -42.5t26.5 -29.5t37.5 -14t45 3q17 4 38 8.5t41.5 10.5t38.5 16.5t28.5 26.5t11.5 40t-13 59z" />
    <glyph glyph-name="registered" unicode="&#xae;" horiz-adv-x="920" 
d="M862 627q-12 43 -32 70t-46.5 44.5t-58.5 28t-68 19.5q-58 15 -108 13.5t-101 -10.5q-46 -8 -92.5 -27.5t-89 -49.5t-80.5 -70.5t-66 -92.5q-34 -61 -52 -131.5t-21.5 -140t8.5 -131.5t38 -105q23 -37 68 -54t103 -17q59 0 128 15.5t141 43.5q83 32 154 94t118.5 142.5
t64.5 173t-8 185.5zM563 466q5 -8 2.5 -14.5t-27.5 -19.5q-12 -6 -32 -13.5t-42 -14.5t-43 -11t-36 -4q3 21 7.5 41t2.5 43q13 11 35.5 17.5t48.5 6.5q30 0 53.5 -9t30.5 -22zM718 608q35 -19 44 -61t-2.5 -93t-41.5 -105t-74 -96q-25 20 -54 35t-56 34q6 2 13 4.5t15 5.5
q20 6 42.5 22t38.5 39.5t21.5 52.5t-8.5 61q-14 31 -41 53t-60.5 33.5t-71 10.5t-72.5 -16q-18 -8 -36.5 -13t-34.5 -12.5t-27 -21t-15 -39.5q-6 -38 -10.5 -76.5t-5.5 -77t4 -77t18 -74.5q11 -31 30 -39q13 -5 24 -1t16 14q6 10 6 25t-2 31t-4 31.5t-1 27.5
q26 -5 49.5 -17.5t46 -27t44 -29t44.5 -24.5q-41 -23 -83.5 -38.5t-85 -23.5t-83.5 -8.5t-78 7.5q-36 8 -55 35.5t-25.5 66t-0.5 84t20.5 89.5t37 82t50.5 61q45 39 93.5 70t104.5 44t121.5 3.5t144.5 -52.5z" />
    <glyph glyph-name="copyright" unicode="&#xa9;" horiz-adv-x="920" 
d="M862 627q-12 43 -32 70t-46.5 44.5t-58.5 28t-68 19.5q-58 15 -108 13.5t-101 -10.5q-46 -8 -92.5 -27.5t-89 -49.5t-80.5 -70.5t-66 -92.5q-34 -61 -52 -131.5t-21.5 -140t8.5 -131.5t38 -105q23 -37 68 -54t103 -17q59 0 128 15.5t141 43.5q83 32 154 94t118.5 142.5
t64.5 173t-8 185.5zM718 608q26 -14 37.5 -41t11 -61.5t-12.5 -73.5t-33 -77.5t-50.5 -74t-65.5 -61.5q-44 -32 -92.5 -54t-98 -34t-97.5 -13.5t-90 7.5q-36 8 -55 35.5t-25.5 66t-0.5 84t20.5 89.5t37 82t50.5 61q45 39 93.5 70t104.5 44t121.5 3.5t144.5 -52.5zM600 268
q14 11 19 24t9 30q7 30 -3.5 38.5t-27.5 6t-36 -12t-30 -15.5q-19 -11 -45.5 -25.5t-54.5 -24t-55.5 -11.5t-48.5 11q-16 10 -18.5 27t5 37.5t22.5 43t34 43t40.5 38t42.5 27.5q27 14 41.5 8t25 -17.5t21.5 -21.5t33 -2q22 7 30 23.5t5 36t-15.5 39t-33 32.5t-47 17.5
t-56.5 -6.5q-52 -18 -99 -58.5t-81 -89.5t-50.5 -98.5t-8.5 -85.5q6 -26 19.5 -48.5t34 -38.5t47.5 -24t59 -4q61 8 119 35.5t103 65.5z" />
    <glyph glyph-name="trademark" unicode="&#x2122;" horiz-adv-x="1035" 
d="M977 425q-3 11 -6.5 21.5t-5.5 17.5q-17 60 -26 127t-14 130q-1 9 1.5 20t3 21.5t-3.5 19t-17 13.5q-13 4 -26 0.5t-25 -11.5t-22.5 -19.5t-18.5 -23.5q-26 -38 -53 -84t-53 -88q-11 16 -18.5 29.5t-13 27t-10 28.5t-7.5 35q-3 13 -3 23q0 11 -1 22q0 7 -8.5 20t-20.5 21
t-26 6.5t-26 -21.5q-35 -57 -61.5 -129.5t-43.5 -146.5q-3 -12 -5.5 -30.5t-3 -37.5t2.5 -35t12 -24q12 -11 22 -13t17.5 2t12.5 11.5t7 15.5q2 6 2.5 13t1.5 14q1 25 4.5 45t10 38.5t16 36.5t23.5 40q19 -27 33 -51.5t25 -54.5q4 -13 10 -29.5t14.5 -31.5t20.5 -24.5
t29 -7.5t25.5 9.5t11.5 18.5t3 24t1 25q2 22 9.5 42t18 39t22.5 37.5t22 37.5q10 -21 15.5 -44t10 -46.5t10.5 -46t17 -43.5t28 -31t31.5 -8.5t22.5 14t2 36.5zM443 680q33 3 50.5 18.5t16 33t-24 31.5t-69.5 15q-32 1 -72.5 0.5t-85 -2t-89.5 -5t-86 -8.5q-33 -4 -46 -23.5
t-10.5 -40.5t18.5 -36t41 -9q24 6 48.5 10.5t50.5 5.5q-2 -25 -3 -68.5t2 -106.5q2 -29 1 -49t1 -42q3 -28 19.5 -43.5t35 -16.5t32.5 13t11 45q-5 52 -11 97.5t1 98.5q2 20 6 39.5t6 39.5q38 7 78 3t79 0z" />
    <glyph glyph-name="acute" unicode="&#xb4;" horiz-adv-x="263" 
d="M355 630q24 2 37 12t17 23.5t0 27.5t-14 24q-13 13 -34 20.5t-38 6.5q-17 -2 -32.5 -5t-33 -8.5t-37.5 -15t-46 -22.5q-20 -11 -38.5 -19.5t-35.5 -18.5t-32 -22t-28 -30q-7 -10 -3.5 -19t12.5 -15.5t20 -9t18 0.5q19 9 35.5 17t33 15.5t34.5 14.5t41 12q20 4 36 6t30 3
t28 1t30 1z" />
    <glyph glyph-name="ellipsis" unicode="&#x2026;" horiz-adv-x="1220" 
d="M1024 93q3 16 -7 32t-26.5 27t-36 16t-35.5 1q-19 -6 -30.5 -25.5t-14.5 -43t3.5 -45.5t23.5 -31q19 -11 40 -7t38.5 16t30 28.5t14.5 31.5zM603 129q-9 23 -31 36t-50 0q-30 -14 -41 -42t-7 -56.5t21.5 -50t44.5 -21.5q21 0 36.5 14t23.5 34.5t9 43.5t-6 42zM204 118
q-14 34 -43 43.5t-58 0t-50 -34.5t-19 -59q2 -31 24 -46t53 -7q16 4 37.5 8.5t38 14.5t23.5 28.5t-6 51.5z" />
    <glyph glyph-name="nonbreakingspace" unicode="&#xa0;" horiz-adv-x="476" 
 />
    <glyph glyph-name="endash" unicode="&#x2013;" horiz-adv-x="642" 
d="M496 346q13 4 23.5 13.5t13 20.5t-5 22t-31.5 17q-42 11 -92.5 12.5t-102 -2.5t-102 -12t-93.5 -16q-12 -2 -26 -7.5t-24 -13t-13.5 -16t5.5 -17.5q12 -12 35 -16t43 -5q45 0 93 -2t95.5 -1.5t93.5 5.5t88 18z" />
    <glyph glyph-name="emdash" unicode="&#x2014;" horiz-adv-x="642" 
d="M535 349q16 3 31 12t19.5 20.5t-6 22.5t-44.5 18q-51 10 -105 4.5t-111 -14.5t-116.5 -16t-121.5 -2q-18 1 -33 -8.5t-18.5 -23t7.5 -28t44 -22.5q50 -12 107 -11t116 8.5t118 19t113 20.5z" />
    <glyph glyph-name="quotedblleft" unicode="&#x201c;" horiz-adv-x="395" 
d="M374 497q7 7 7.5 15.5t-2.5 17.5t-9 18.5t-10 17.5q-24 43 -32 73t-11 54t-6 46t-18 49q-12 21 -30 19t-33 -18.5t-23 -41.5t0 -49q14 -41 35 -86t44 -81q7 -12 17.5 -23t22 -17.5t24 -6t24.5 12.5zM184 456q7 5 7 14t-3.5 19.5t-8.5 22t-8 22.5q-13 45 -32 91t-38 94
q-3 7 -5 17.5t-4 20.5t-6 17.5t-11 9.5q-30 6 -44.5 -5t-19 -32t-1 -47t9.5 -48q4 -17 14 -37t22 -40t26 -39t28 -34q8 -9 17.5 -19.5t19.5 -18.5t19.5 -11t17.5 3z" />
    <glyph glyph-name="quotedblright" unicode="&#x201d;" horiz-adv-x="441" 
d="M416 772q-19 15 -36.5 11.5t-33.5 -17.5t-31 -35.5t-30 -43.5q-12 -18 -23 -39t-20 -44t-14.5 -46t-5.5 -44v-22t1.5 -22.5t6 -18t13.5 -7.5t16 5t12.5 13t9.5 17.5t7 17.5q20 52 48.5 97.5t61.5 77.5q9 9 16.5 23t11 28.5t2 27.5t-11.5 21zM225 788q-9 9 -19.5 11
t-21 -1t-21 -9t-19.5 -12q-28 -20 -48.5 -47.5t-34 -60.5t-21 -68.5t-9.5 -69.5q-2 -26 -0.5 -50.5t21.5 -32.5q9 -3 16 2t12.5 14.5t10 21.5t7.5 22q10 33 21 57t24 45t27 42t29 49q9 16 17 29t12.5 23t4 18.5t-7.5 16.5z" />
    <glyph glyph-name="quoteleft" unicode="&#x2018;" horiz-adv-x="225" 
d="M202 499q10 10 9.5 22t-6 25t-15 25t-17.5 21q-21 22 -30.5 43t-14 40t-8 35t-10.5 29q-10 16 -22 28.5t-28 14.5q-24 3 -36.5 -7.5t-16.5 -27.5t-1 -38t9 -37q15 -42 43 -83t60 -69q9 -8 18.5 -16.5t20 -13.5t22 -4t23.5 13z" />
    <glyph glyph-name="quoteright" unicode="&#x2019;" horiz-adv-x="280" 
d="M246 775q-7 7 -16 6.5t-18.5 -4.5t-19.5 -10.5t-18 -10.5q-29 -14 -54.5 -38t-44 -53t-30 -60.5t-12.5 -61.5q0 -11 -0.5 -23.5t1 -24t6 -19.5t14.5 -10q8 -2 15 3t13 13t11 18.5t8 19.5q8 21 24 47.5t35 51.5t39 46.5t35 33.5q7 6 12 16t7 21.5t0.5 22t-7.5 16.5z" />
    <glyph glyph-name="divide" unicode="&#xf7;" horiz-adv-x="484" 
d="M418 364q14 2 24 11.5t11.5 20.5t-7.5 21.5t-34 15.5q-30 6 -72 9.5t-88 3.5t-92.5 -4.5t-83.5 -14.5q-12 -3 -22 -12t-16 -20.5t-7.5 -24.5t3.5 -25q8 -16 27.5 -23.5t39.5 -0.5q39 13 87 21t94 12t83 6t53 4zM331 608q13 -33 6 -51.5t-23.5 -28.5t-38 -14.5t-37.5 -8.5
q-31 -8 -53 7t-24 46q-2 23 8 42t25.5 32t35.5 19.5t39.5 4.5t36 -13.5t25.5 -34.5zM328 233q13 -33 6 -51.5t-23.5 -28.5t-38 -14.5t-37.5 -8.5q-31 -8 -53 7t-24 46q-2 23 8 42t25.5 32t35.5 19.5t39.5 4.5t36 -13.5t25.5 -34.5z" />
    <glyph glyph-name="apple" unicode="&#xf8ff;" horiz-adv-x="1495" 
d="M1479 690v31h-6l-9 -25l-10 25h-6v-31h3v27h1l10 -27h3l10 27v-27h4zM1444 718v3h-23v-3h9v-28h4v28h10zM1407 713q-14 17 -32 14t-26 -11q-10 9 -23.5 11t-27.5 -7q-10 -7 -12.5 -19t2.5 -21q-11 0 -45.5 -1t-72.5 -1q-18 0 -39.5 -1t-41.5 -2q-72 51 -174.5 77.5
t-227.5 26.5q-177 0 -305 -54t-190 -149q-3 -2 -5.5 -4t-4.5 -4q-5 2 -8 8t-5 13q3 2 7 8.5t5.5 15t-0.5 17t-12 13.5q-11 7 -24.5 6.5t-24.5 -8.5q-13 10 -28.5 8.5t-23.5 -8.5q-11 -8 -14.5 -26.5t14.5 -37.5q9 -9 20 -14t21.5 -7.5t19.5 -2.5t15 1q-10 5 -15 15
q8 -5 19 -10t18 -7q-15 -13 -30 -33.5t-26.5 -46t-18.5 -55t-7 -60.5q0 -62 20 -111t53 -86.5t75 -64t87 -43.5v62q71 -42 164 -63t204 -21q160 0 283 44q5 -9 5 -19q0 -9 -2 -16q-3 -13 -10.5 -24.5t-17.5 -17.5q-6 -5 -3 -12q4 -8 11 -6q32 7 54 23t35.5 36t18.5 41t4 39
q83 51 125.5 123.5t42.5 163.5v4h21v200h36v15q17 5 33 11.5t21 14.5q-1 -5 -6 -11.5t-9 -8.5q23 1 38 4.5t30 17.5q12 10 16.5 28.5t-6.5 32.5zM1396 690q0 -11 -8.5 -20t-16 -13t-8.5 -5q12 10 10 21q-7 0 -12 6t-4 14q0 8 6.5 12.5t11.5 4.5t12.5 -4t8.5 -16zM1345 690
q0 -11 -8.5 -19.5t-16.5 -12.5t-9 -5q13 8 11 20q-7 1 -12 6.5t-5 14.5q1 8 7 12.5t11 4.5t13.5 -4t8.5 -17zM1304 664q-2 -5 -5 -8.5t-9 -8.5v30q5 -9 14 -13zM1174 592q-2 3 -4.5 6.5t-4.5 6.5l9 1v-14zM1269 629h-36v-202l-39 1v201h-36v30h111v-30zM1140 627l-39 -2
l-4 -111l40 3v-34l-40 -2v-57l-36 -2v233l79 3v-31zM1051 421l-37 -3l-9 29l-60 -5l-6 -33l-37 -6l43 243l52 4zM901 496l-13 -59l-15 15q20 18 28 44zM892 402l-40 -7l-39 36l1 -43l-35 -7v253l17 1t37.5 -5.5t38.5 -24.5t20 -55q1 -29 -11 -52.5t-23 -34.5t-13 -12z
M756 430q-28 1 -47.5 19t-18.5 45q1 30 19 50.5t47 29.5v-144zM762 378q-8 -1 -28.5 1.5t-42.5 13.5t-39.5 34t-18.5 63q-1 44 18 72t42.5 43.5t43.5 21.5l20 6v-37l-13.5 -4.5t-29.5 -16t-29.5 -31t-12.5 -49.5q1 -33 15.5 -50t31 -24.5t30 -8l13.5 -0.5v-34zM1215 405
q0 -87 -42 -156t-123 -117q-5 -3 -5 -10q2 -12 -0.5 -27.5t-10 -31t-20.5 -29.5t-32 -24q5 10 10 25q6 32 -9 55q-5 7 -12 4q-122 -45 -284 -45q-112 0 -205.5 22t-162.5 65v17q-23 9 -49 27t-47.5 43t-35.5 57.5t-14 71.5q0 30 9 60t25.5 55t41 43t55.5 24v98
q-16 -3 -32 -9.5t-31 -14.5l4 4l4 4q69 70 182 107t256 37q113 0 207 -22t163 -65q-8 -1 -13 -1h-5v-110l-26 108l-85 -5l-15 -93q-25 96 -146 82q-44 -5 -81 -28.5t-54 -59.5v52l-143 -52l-20 -61l-30 48l-62 -21v-74q-9 25 -26.5 41.5t-44.5 16.5t-45 -18t-28.5 -43
t-14.5 -52t-3 -44q1 -23 6.5 -49.5t16.5 -49t28 -37.5t41 -15q23 0 41 19.5t31 46.5l-1 -38l76 31v89l18 -36l17 39v-79l144 47v87q9 -16 25 -28t35 -19.5t40 -10t41 1.5q13 2 28.5 5t24.5 5t10 2v13l12 -10q23 5 56.5 10.5t53.5 7.5l8 31l25 3l11 -31l114 10v56l40 3v73
l-37 -2v69l21 1q9 -11 17.5 -22.5t15.5 -23.5v-149h40q0 -2 0.5 -2.5t0.5 -1.5zM611 338l-36 -12v248l36 12v-248zM545 318l-36 -12l1 163l-38 -91l-39 61v-161l-36 -13v252l32 12l41 -73l36 95l39 14v-247zM163 614q1 -9 -4 -14.5t-13 -6.5q-2 -12 11 -20q-1 1 -8.5 5
t-16 12.5t-8.5 19.5q1 13 8.5 17t12.5 4t11 -4.5t7 -12.5zM112 613q1 -8 -4 -14t-13 -7q-2 -10 10 -20q-1 1 -8.5 5t-15.5 13t-8 20q0 12 7.5 16t12.5 4q6 0 12 -4.5t7 -12.5zM378 354q0 -20 -5.5 -41.5t-15.5 -40.5t-22.5 -31t-27.5 -12q-18 0 -32 14t-23 34t-14 43t-6 40
q0 15 3.5 38t12 44.5t23 37.5t35.5 16t35 -15t22.5 -37t11.5 -46.5t3 -43.5zM300 85q-2 1 -20.5 9.5t-48 28.5t-58 50.5t-49 75t-20.5 101.5q-1 58 18 102t45 72.5t53.5 46.5t45.5 25.5t19 7.5v-54q-1 0 -13.5 -5t-32 -18.5t-38.5 -35.5t-33.5 -57t-15.5 -82
q-1 -41 12.5 -76.5t35 -63t48 -46.5t52.5 -28v-53zM999 475l-26 123l-22 -127zM859 544q-1 19 -13 29.5t-21.5 13.5t-11.5 3v-116q2 1 12.5 9.5t22.5 25t11 35.5zM341 365q0 40 -9 68.5t-27 28.5q-9 0 -16 -10.5t-11.5 -25.5t-7 -32t-2.5 -31q0 -11 2.5 -27t7.5 -31
t12 -25.5t16 -10.5q17 1 26 28t9 68zM981 489l-11 -1l5 28zM830 517v41q10 -5 9.5 -19.5t-9.5 -21.5zM319 364q0 -28 -3.5 -47t-10.5 -19q-3 0 -5.5 7t-5 17.5t-3.5 21.5t-1 19q0 10 1 22t3 22.5t4.5 17.5t6.5 7q7 0 10.5 -19.5t3.5 -48.5z" />
    <glyph glyph-name="numbersign" unicode="#" horiz-adv-x="973" 
d="M929 513q-17 9 -42.5 15.5t-54.5 10.5t-58 5t-54 0q-5 27 -6 54t-3.5 55t-9 55.5t-21.5 54.5q-7 12 -15.5 10t-16.5 -11.5t-14 -23.5t-8 -26q-3 -23 -2 -43t1.5 -39t-2 -37.5t-14.5 -37.5h-264v190q-8 25 -18 31t-19.5 2t-16.5 -14t-8 -19q-5 -26 -10.5 -47t-10 -42.5
t-7.5 -45.5t-3 -55q-40 0 -73 4.5t-61 5.5t-50 -7t-40 -34q-22 -32 -18.5 -47.5t23 -21.5t49.5 -5.5t62 1t61.5 -2.5t46.5 -17v-233q-18 -5 -42 -6.5l-48 -3t-44.5 -4t-32.5 -9.5t-12 -20t18 -36q13 -17 36 -21.5t47.5 -4t47.5 0.5t37 -8q13 -8 20.5 -27t3.5 -46
q9 -18 13.5 -39t11 -37t18 -22.5t34.5 5.5l16 186q67 5 129 5t128 -5q4 -23 8.5 -53.5t12 -55t20 -37.5t33.5 1q14 9 18.5 30.5t6 44.5t3 43.5t9.5 26.5q11 9 29.5 14t39 8t40.5 6t34 8.5t19.5 15t-3.5 25.5q-12 22 -34 30t-46.5 9t-49.5 -0.5t-43 2.5q-2 29 -2.5 55l-1 52
t-1.5 53t-5 59q49 1 99 6.5t84 14.5t44.5 21.5t-18.5 27.5zM625 214h-265l-15 232h264q-9 -38 -4 -68t12 -57t12 -52.5t-4 -54.5z" />
    <glyph glyph-name="exclam" unicode="!" horiz-adv-x="271" 
d="M238 652q15 28 18 58t-3 55t-20.5 41.5t-34.5 19.5q-17 2 -27 -7.5t-17 -25t-12 -32.5t-10 -30q-14 -34 -24 -76t-16 -88.5t-7.5 -94t1.5 -92.5q1 -11 2 -24.5t3.5 -25.5t7 -22t13.5 -13q12 -5 22 -2t16 10.5t8.5 18t0.5 21.5q-5 31 -0.5 70t15.5 80t28 82t36 77z
M181 118q-8 23 -30.5 35.5t-49.5 0.5q-30 -14 -41 -42t-7 -56.5t21.5 -50t44.5 -21.5q21 0 36 14t23.5 34.5t9 43.5t-6.5 42z" />
    <glyph glyph-name="quotedbl" unicode="&#x22;" horiz-adv-x="391" 
d="M351 790q-21 11 -37.5 4.5t-30 -23t-24.5 -40t-22 -47.5q-9 -20 -16.5 -43t-12 -47t-5.5 -47.5t2 -44.5q1 -10 3 -22t5.5 -22t9 -16t14.5 -5t15 7.5t10 15t6.5 18.5t4.5 19q10 54 30.5 104t46.5 88q7 10 12.5 25t6.5 30t-3 27.5t-15 18.5zM168 782q-11 8 -21.5 8.5
t-20.5 -4t-19.5 -12t-16.5 -16.5q-14 -18 -25.5 -44.5t-19.5 -58t-11 -66.5t1 -69q3 -26 8.5 -50t26.5 -28q9 -2 15 4.5t10 17t6 22.5t3 23q4 35 9 56.5t11.5 39.5t15 37.5t18.5 50.5q6 17 11.5 31t8 24.5t1 19t-10.5 14.5z" />
    <glyph glyph-name="glyph113" horiz-adv-x="876" 
d="M674 555q10 -2 13.5 1t3 7.5t-5.5 10t-11 8.5q-39 19 -72.5 30t-66.5 11q-32 0 -65 -11.5t-72 -36.5q-9 -6 -24 -18t-28 -26.5t-19.5 -29.5t-0.5 -28q8 -17 24 -14q6 1 13.5 6t14.5 12l14 14t12 11q31 24 63 37t65.5 18.5t68.5 4t73 -6.5zM851 572q-1 13 -1.5 34t-4 42
t-13 36.5t-27.5 17.5q0 11 -9.5 24t-20.5 18q-22 10 -55.5 14.5t-70.5 6t-73 1.5q-35 0 -60 2q-19 1 -52 2.5t-73 1.5q-39 0 -81 -2t-78.5 -8t-64 -17t-38.5 -28q-14 0 -22 -18.5t-11.5 -46.5t-4 -62.5t2 -66.5t6.5 -57.5t9 -35.5q6 -14 15.5 -15.5t18.5 4t15.5 16.5t6.5 23
l1 34q2 46 0 91.5t-8 91.5q36 5 71.5 12t71.5 10q88 7 175 7t175 -5q32 -2 66 -6.5t67 -5.5q1 -52 2.5 -104t-2.5 -104q-3 -41 -4 -78.5t-3 -74.5t-5 -74t-10 -78q-2 -10 0.5 -25t8.5 -25.5t15.5 -12.5t21.5 14q13 18 12.5 42t2.5 45q9 48 15.5 92t10 87.5t4.5 87.5t-2 93z
M730 228q9 20 -2 30t-30.5 11.5t-42 -5t-35.5 -18.5q-21 -20 -11.5 -36t32.5 -21.5t49.5 2.5t39.5 37zM771 83q-37 0 -73.5 -1.5t-73.5 -1.5q-111 0 -222 1t-222 7q1 56 2.5 113t-9.5 112q37 12 72.5 25t73.5 24q0 -33 3 -62.5t17 -59.5q4 -9 9 -12.5t10.5 -4.5t11.5 -0.5
t14 -0.5q9 -11 21 -15t26 -4t27.5 2.5t25.5 4.5q52 9 94 34t71 70q6 9 11.5 25t7.5 32.5t-1.5 30t-16.5 18.5q-2 2 -10.5 12t-25.5 16q-54 20 -94 22.5t-76.5 -4t-75 -19t-87.5 -22.5l-75 -15t-67 -18t-63 -28t-62 -46q-12 -11 -21 -19t-17 -23q-8 -17 -3 -23t18 -4.5
t30.5 7.5t34.5 13.5t30.5 14t18.5 8.5v-30q0 -20 0.5 -46.5t1 -55t2 -53t4 -42t7.5 -21.5q5 -5 11 -5q7 0 13 1q1 -10 6 -14t11 -5t13 -0.5t14 0.5q78 -5 156 -7t156 -7q57 -4 113 -7.5t113 2.5q34 4 50.5 17t20 27.5t-4 25.5t-21.5 11zM626 405q2 -20 -25.5 -42t-65 -42
t-74.5 -35t-53 -21q-4 2 -9.5 18.5t-11 37t-10 39t-5.5 24.5q37 18 66 27t57.5 11.5t59.5 -2.5t71 -15z" />
  </font>
</defs>
</svg>
